Торренты   
 
 

 

Хранитель Времени / Hugo (Мартин Скорсезе) [2011 г., SideBySide, 1080p]

Рейтинг 3D:
1 голосов
8.0
Рейтинг фильма:
1 голосов
7.0
 
Вы должны быть авторизированы,
чтобы ставить оценки


Хранитель Времени / Hugo
Год выпуска: 2011
Страна: США, Paramount Pictures, GK Films, Infinitum Nihil
Жанр: Комедия, детектив, детский
Продолжительность: 02:06:21
Язык озвучки Русский и Украинский, полный дубляж.
Режиссер: Мартин Скорсезе
В ролях: Хлоя Морец, Эмили Мортимер, Джуд Лоу, Кристофер Ли, Саша Барон Коэн, Бен Кингсли, Рэй Уинстоун, Ричард Гриффитс, Хелен МакКрори, Аса Баттерфилд
Описание: Действие разворачивается во Франции начала 30-х. Главный герой, мальчик-сирота Хьюго, проживающий в стенах парижского вокзала со своим дядей-алкоголиком, случайно находит таинственный механизм, созданный знаменитым фильммейкером Жоржем Мелье. Эта находка запускает цепную реакцию удивительных событий, которые в конечном итоге помогут Хьюго разгадать тайну его покойного отца.
Данный релиз не предназначен для телевизоров, разрешение 3840x1080!

МИ

General
Unique ID : 233148830794053300234487479853252600276 (0xAF66D4DB61F735EC9BB8735D4A2FE1D4)
Complete name : D:\3D\Hugo\Hugo3D SBS Rus Ukr Fullhd.mkv
Format : Matroska
Format version : Version 2
File size : 20.7 GiB
Duration : 2h 6mn
Overall bit rate : 23.4 Mbps
Encoded date : UTC 2012-02-24 15:55:35
Writing application : mkvmerge v5.3.0 ('I could have danced') built on Feb 9 2012 10:38:07
Writing library : libebml v1.2.3 + libmatroska v1.3.0
Video
ID : 1
Format : AVC
Format/Info : Advanced Video Codec
Format profile : High@L5.0
Format settings, CABAC : Yes
Format settings, ReFrames : 5 frames
Format settings, GOP : M=1, N=24
Muxing mode : Header stripping
Codec ID : V_MPEG4/ISO/AVC
Duration : 2h 6mn
Bit rate : 22.1 Mbps
Width : 3 840 pixels
Height : 1 080 pixels
Display aspect ratio : 3.556
Frame rate : 23.976 fps
Color space : YUV
Chroma subsampling : 4:2:0
Bit depth : 8 bits
Scan type : Progressive
Bits/(Pixel*Frame) : 0.223
Stream size : 19.5 GiB (94%)
Writing library : x264 core 120 r2119 0637cd6
Encoding settings : cabac=1 / ref=5 / deblock=1:-3:-3 / analyse=0x3:0x113 / me=umh / subme=9 / psy=1 / psy_rd=1.00:0.15 / mixed_ref=1 / me_range=16 / chroma_me=1 / trellis=2 / 8x8dct=1 / cqm=0 / deadzone=21,11 / fast_pskip=1 / chroma_qp_offset=-3 / threads=8 / sliced_threads=1 / slices=8 / nr=0 / decimate=1 / interlaced=0 / bluray_compat=0 / constrained_intra=0 / bframes=6 / b_pyramid=2 / b_adapt=2 / b_bias=0 / direct=3 / weightb=1 / open_gop=0 / weightp=2 / keyint=250 / keyint_min=23 / scenecut=40 / intra_refresh=0 / rc_lookahead=60 / rc=crf / mbtree=1 / crf=18.0 / qcomp=0.70 / qpmin=0 / qpmax=69 / qpstep=4 / ip_ratio=1.40 / aq=1:1.00
Audio #1
ID : 2
Format : AC-3
Format/Info : Audio Coding 3
Mode extension : CM (complete main)
Muxing mode : Header stripping
Codec ID : A_AC3
Duration : 2h 6mn
Bit rate mode : Constant
Bit rate : 448 Kbps
Channel(s) : 6 channels
Channel positions : Front: L C R, Side: L R, LFE
Sampling rate : 48.0 KHz
Bit depth : 16 bits
Compression mode : Lossy
Stream size : 405 MiB (2%)
Language : Russian
Audio #2
ID : 3
Format : AC-3
Format/Info : Audio Coding 3
Format profile : Dolby Digital
Mode extension : CM (complete main)
Muxing mode : Header stripping
Codec ID : A_AC3
Duration : 2h 6mn
Bit rate mode : Constant
Bit rate : 384 Kbps
Channel(s) : 2 channels
Channel positions : Front: L R
Sampling rate : 48.0 KHz
Bit depth : 16 bits
Compression mode : Lossy
Stream size : 347 MiB (2%)
Language : Ukrainian
Формат 3d: SideBySide

Скриншоты



Благодарности релизеру (0)

Торрент:

Статус:

Размер:

Зарегистрирован   [ 2012-02-24 20:44 ]

x закрыто

20.69 GB

 
Комментарии:

1, 2  След.






спасибо
 

Скриншоты в раздаче короче... xDDD Скачайте их первым делом.
 

а почему повелитель времени? на обложке другое название...
 

Потому что я дурак ))
 

Спасибо за SideBySide
 

bdwind
Даааа...Круто. Мощная должна быть "машина", чтобы так быстро рипнуть 2-х часовой фильм в Фулл.
Молодец! Спасибо.
 

Спасибо ра релиз!Но третий скрин не совсем удачный!:)И размерчик королевский!В смысле великоват уж больно!Но это я привередничаю!:)))СПАСИБО!
 

bdwind
Скрины надо все таки перезалить, а так, по МИ, отличный рип.
 

Как качество звука ??? Стоит ли ждать официального российского издания исходника ???
 

фильм не для 3д
он просто для просмотра
 

Буду терпеливо, но спокойно ждать нужного и важного размера. Чутьё подсказывает что кто-то уже делает...
 

Всем пожалуйста, imageban заработал - скрины перезалиты... Делаю сейчас тоже самое в вертикалке, чтобы кому надо было удобнее от черных полос по краям избавлялись :)
Завтра будет оверандер с темеже параметрами, затем уже 720р с 60 fps :)
 

крутотенечка,спасибо.
 

bdwind
Ты крут!!!! Такое заявлять!!!
Между тем, осмелюсь заметить, что качественный перевод из 23.976 в 60 фпс занимает Очень много времени, в таком случае вопрос, как - так?
Есть соответсвующая тема!
Сорри за "рекламу".
И есть эталон качества, т.е. выше него не прыгнешь! Блю-рей смеётся в истерике.. Эт, конечно, не в 3Д, но Внимания стоит!
В Вашем случае как?
 

Solaris
Посмотри список моих сейчашних раздач :) Тут есть мои рипы с 60 кадрами вполне норм :)
На вопрос как я делал видеомануал и набор софта, но так и не запостил сюда :(
И делать рип в 60 кадров будет намного быстрее чем обычный рип, т.к. мультитридинг работает :)
 

народ всем привет ! а подскажите какой плеер лучше использовать для такого разрешения ? а то недавно скачал ТОР с разрешением 1920*2160р так мой PotPlayer выдал черный экран а посредине два маленьких квадрата(кино) ? спасибо за раздачу
 

на телевизоре LG LW 575 s через DLNA не пошел))
 

Только что просмотрел!Рип практически безупречен!!!!Спасибо за труд автору!!!:)И по моему это можно прилепить!Ну это моя точка зрения!!!:)качество стерео местами напоминает СТЕРЕО 70.
 

На телевизорах не пойдет вообще никак, этот рип для стереоскопика и телевизоров подрубленных к компу, или для проекторов.
 

Сделайте пожалуйста стемпл, что бы можно было бы проверить пойдет фильм на ТВ или нет
 

Страница 1 из 2

1, 2  След.