Торренты   
 
 

 

Хранитель Времени / Hugo (Мартин Скорсезе) [2011 г.,1080p, Full OverUnder]

Рейтинг 3D:
77 голосов
8.7
Рейтинг фильма:
73 голосов
8.0
 
Вы должны быть авторизированы,
чтобы ставить оценки


Хранитель Времени / Hugo
Год выпуска: 2011
Страна: США, Paramount Pictures, GK Films, Infinitum Nihil
Жанр: Комедия, детектив, детский
Продолжительность: 02:06:21
Перевод: Профессиональный (полное дублирование)
Режиссер: Мартин Скорсезе
В ролях: Хлоя Морец, Эмили Мортимер, Джуд Лоу, Кристофер Ли, Саша Барон Коэн, Бен Кингсли, Рэй Уинстоун, Ричард Гриффитс, Хелен МакКрори, Аса Баттерфилд
Описание: Действие разворачивается во Франции начала 30-х. Главный герой, мальчик-сирота Хьюго, проживающий в стенах парижского вокзала со своим дядей-алкоголиком, случайно находит таинственный механизм, созданный знаменитым фильммейкером Жоржем Мелье. Эта находка запускает цепную реакцию удивительных событий, которые в конечном итоге помогут Хьюго разгадать тайну его покойного отца.
Доп. информация: Данный релиз не предназначен для проигрывания на встроенных плеерах ТВ по USB, разрешение 1920x2160!

Формат 3d: Full OverUnder

Скриншоты


MI

General
Unique ID : 231117791372312740583181041792742568198 (0xADDFAAE1D59481E4A427EF91F527B106)
Complete name : D:\3D\Hugo OA\Hugo3D OU Rus Ukr Fullhd.mkv
Format : Matroska
Format version : Version 2
File size : 20.4 GiB
Duration : 2h 6mn
Overall bit rate : 23.1 Mbps
Encoded date : UTC 2012-02-26 08:43:12
Writing application : mkvmerge v5.3.0 ('I could have danced') built on Feb 9 2012 10:38:07
Writing library : libebml v1.2.3 + libmatroska v1.3.0
Video
ID : 1
Format : AVC
Format/Info : Advanced Video Codec
Format profile : High@L5.0
Format settings, CABAC : Yes
Format settings, ReFrames : 5 frames
Muxing mode : Header stripping
Codec ID : V_MPEG4/ISO/AVC
Duration : 2h 6mn
Bit rate : 21.8 Mbps
Width : 1 920 pixels
Height : 2 160 pixels
Display aspect ratio : 0.889
Frame rate : 23.976 fps
Color space : YUV
Chroma subsampling : 4:2:0
Bit depth : 8 bits
Scan type : Progressive
Bits/(Pixel*Frame) : 0.219
Stream size : 19.2 GiB (94%)
Writing library : x264 core 120 r2119 0637cd6
Encoding settings : cabac=1 / ref=5 / deblock=1:-3:-3 / analyse=0x3:0x113 / me=umh / subme=9 / psy=1 / psy_rd=1.00:0.15 / mixed_ref=1 / me_range=16 / chroma_me=1 / trellis=2 / 8x8dct=1 / cqm=0 / deadzone=21,11 / fast_pskip=1 / chroma_qp_offset=-3 / threads=8 / sliced_threads=1 / slices=8 / nr=0 / decimate=1 / interlaced=0 / bluray_compat=0 / constrained_intra=0 / bframes=6 / b_pyramid=2 / b_adapt=2 / b_bias=0 / direct=3 / weightb=1 / open_gop=0 / weightp=2 / keyint=250 / keyint_min=23 / scenecut=40 / intra_refresh=0 / rc_lookahead=60 / rc=crf / mbtree=1 / crf=18.0 / qcomp=0.70 / qpmin=0 / qpmax=69 / qpstep=4 / ip_ratio=1.40 / aq=1:1.00
Default : Yes
Forced : No
Audio #1
ID : 2
Format : AC-3
Format/Info : Audio Coding 3
Mode extension : CM (complete main)
Muxing mode : Header stripping
Codec ID : A_AC3
Duration : 2h 6mn
Bit rate mode : Constant
Bit rate : 448 Kbps
Channel(s) : 6 channels
Channel positions : Front: L C R, Side: L R, LFE
Sampling rate : 48.0 KHz
Bit depth : 16 bits
Compression mode : Lossy
Stream size : 405 MiB (2%)
Language : Russian
Default : Yes
Forced : No
Audio #2
ID : 3
Format : AC-3
Format/Info : Audio Coding 3
Format profile : Dolby Digital
Mode extension : CM (complete main)
Muxing mode : Header stripping
Codec ID : A_AC3
Duration : 2h 6mn
Bit rate mode : Constant
Bit rate : 384 Kbps
Channel(s) : 2 channels
Channel positions : Front: L R
Sampling rate : 48.0 KHz
Bit depth : 16 bits
Compression mode : Lossy
Stream size : 347 MiB (2%)
Language : Ukrainian
Default : No
Forced : No
Остальные раздачи этого фильма (3)
Благодарности релизеру (8)

Торрент:

Статус:

Размер:

Зарегистрирован   [ 2012-02-26 13:26 ]

проверено

20.35 GB

 
 Мнение о фильме (25)

1, 2  След.






Благодарю! можно золото давать! ))
 

Спасибо за фильм. Замечательный фильм! Смотрел с удовольствием.
 

Автору спасибо за раздачу, 3D хорошее, но идея фильма по мне так ниочем.
 

Спасибо за фильм очень понравился.
 

Спасибо за раздачу, мало хороших фильмов, которые можно показывать детям.
 

Один из редких примеров, когда кино снимали сразу со знанием 3д, и поэтому 3д стало его частью. А не как обычно, 3д как бы отдельная фича к фильму, который снимался по старинке. Сам фильм добрый.
 

Вот это да !!!!!!
 

ИМХО. фильм вообще пустой! не заслуживает внимания! не понимаю откуда высокий рейтинг!!!
 

Спасибо за отличное стерео. Хорошая глубина, каждая пара с одинаковым цветом и резкостью,
без ошибок параллакса, можно сказать образец.
 

Отличный фильм для семейного просмотра.
 

фильм классный, для детей вообще супер, без кучи крови и драк. Вообще добрый фильм во всех отношениях, со смыслом. Любителям боевиков, без сюжета с поверхностным смыслом - наверно не понравится, т.к. в фильме есть своя сюжетная линия, которая приводит к соответствующему финалу.
 

Замечательный фильм, замечательное 3D! Спасибо!
 

3D не смотрел, смысла нет, т.к. фильм отстой. Разве, что название замануха.
 

фильмец нормальный с ребенком смотрели качество достойное
 

Очень неплохой фильм и 3Д на уровне. На телике идет нормально.Только звук немного отстает :))
 

у этого фильма куча премий за 2012 год: 5 оскаров, 1 золотой глобус, 1 золотой Сатурн и 2 премии британской академии! А уж про количество номинаций я вообще молчу (кому интересно зайдите на кинопоиск и почитайте)! Если кто-то говорит что фильм говно, не слушайте их, или смотрят с домофона или нечерта не смыслят в кино! Фильм супер, ЗД просто класс!
 

Почему в России название фильмов переводят через задницу?:/ Hugo в переводе будет чортик, здесь имя собственное вообше не должно переводиться!
 

Замечательный, умный фильм. Добротное изображение 3D
 

Умный, замечательный фильм. Добротное 3D изображение.
 

фильм детский. Еле досмотрел, растянутый сюжет. Если фильм невпячетлил в первые 20 мин. можете не смотреть, весь оставшийся фильм в том же стиле.
 
Андрей666999А Профиль 18-Ноя-2014 23:25

Страница 1 из 2

1, 2  След.