Торренты   
 
 

 

Природа 3D / Nature 3D / Unsere Natur 3D [2011 г., BDrip, Anamorph OverUnder]

Рейтинг 3D:
9 голосов
7.6
Рейтинг фильма:
11 голосов
8.3
 
Вы должны быть авторизированы,
чтобы ставить оценки


Природа 3D / Nature 3D Год выпуска: 2011
Страна: Германия
Жанр: документальный, релакс
Продолжительность: 01:00:29
Перевод: Профессиональный (дублированный)
Русские субтитры: нет
Режиссер: Бенжамин Краузе
Описание:
Уникальный фильм о природе, показывающий красоту нашей планеты в стерео-формате. В фильме собраны 3D-изображения живой природы Западной и Восточной Европы, звучат стихи великих поэтов и мыслителей конца 18 — начала 19 веков. Погрузитесь в расслабляющую атмосферу прекрасных видов и звуков.--Релиз группы:

Проверено на встроенном плейере ТВ LG 42LW4500
--Качество: BDrip
Контейнер: MKV
Формат 3D: Anamorph OverUnder / Вертикальная анаморфная стереопара
Видео кодек: x264
Аудио кодек: AC3
Видео: AVC, 1920x1080, 23.976 кадр/сек, 12,7 Мбит/сек
Аудио:
русский; AC3, 6 каналов, 640 Кбит/сек, 48,0 КГц
музыка; AC3, 6 каналов, 640 Кбит/сек, 48,0 КГц
Субтитры: Русские

Скриншоты

MI

Код:
Общее
Уникальный идентификатор                 : 187133951307851680155780344596709329816 (0x8CC8B0239EE935099A26DCB296CD4B98)
Полное имя                               : D:\3D-RuGroup\Документальные\Nature.3D.2011.BD3DRip.Half.OU.x264.AC3.3D-RuGroup.mkv
Формат                                   : Matroska
Версия формата                           : Version 2
Размер файла                             : 6,04 Гбайт
Продолжительность                        : 1 ч. 0 м.
Общий поток                              : 14,3 Мбит/сек
Название фильма                          : Nature 3D release 3D-RuGroup rip by StarStranger
Дата кодирования                         : UTC 2012-12-21 13:49:05
Программа кодирования                    : mkvmerge v3.4.0 ('Rapunzel') сборка от May 15 2010 09:38:20
Библиотека кодирования                   : libebml v0.8.0 + libmatroska v0.9.0
Видео
Идентификатор                            : 1
Формат                                   : AVC
Формат/Информация                        : Advanced Video Codec
Профиль формата                          : High@L4.1
Параметр CABAC формата                   : Да
Параметр ReFrames формата                : 4 кадра
Идентификатор кодека                     : V_MPEG4/ISO/AVC
Продолжительность                        : 1 ч. 0 м.
Битрейт                                  : 12,7 Мбит/сек
Ширина                                   : 1920 пикселей
Высота                                   : 1080 пикселей
Соотношение сторон                       : 16:9
Режим частоты кадров                     : Постоянный
Частота кадров                           : 23,976 кадра/сек
Цветовое пространство                    : YUV
Субдискретизация насыщенности            : 4:2:0
Битовая глубина                          : 8 бит
Тип развёртки                            : Прогрессивная
Бит/(Пиксели*Кадры)                      : 0.256
Размер потока                            : 5,38 Гбайт (89%)
Заголовок                                : rip by StarStranger aka itsamna
Библиотека кодирования                   : x264 core 116 r2074 2641b9e
Настройки программы                      : cabac=1 / ref=4 / deblock=1:-3:-3 / analyse=0x3:0x133 / me=umh / subme=9 / psy=1 / psy_rd=1.00:0.15 / mixed_ref=1 / me_range=16 / chroma_me=1 / trellis=2 / 8x8dct=1 / cqm=0 / deadzone=21,11 / fast_pskip=1 / chroma_qp_offset=-3 / threads=3 / sliced_threads=0 / nr=0 / decimate=1 / interlaced=0 / bluray_compat=0 / constrained_intra=0 / bframes=6 / b_pyramid=2 / b_adapt=2 / b_bias=0 / direct=3 / weightb=1 / open_gop=0 / weightp=2 / keyint=250 / keyint_min=23 / scenecut=40 / intra_refresh=0 / rc_lookahead=60 / rc=crf / mbtree=1 / crf=18.0 / qcomp=0.60 / qpmin=10 / qpmax=69 / qpstep=4 / vbv_maxrate=50000 / vbv_bufsize=50000 / crf_max=0.0 / nal_hrd=none / ip_ratio=1.40 / aq=1:0.70
Default                                  : Нет
Forced                                   : Нет
Аудио #1
Идентификатор                            : 2
Формат                                   : AC-3
Формат/Информация                        : Audio Coding 3
Расширение режима                        : CM (complete main)
Параметр Endianness формата              : Big
Идентификатор кодека                     : A_AC3
Продолжительность                        : 1 ч. 0 м.
Вид битрейта                             : Постоянный
Битрейт                                  : 640 Кбит/сек
Каналы                                   : 6 каналов
Расположение каналов                     : Front: L C R, Side: L R, LFE
Частота                                  : 48,0 КГц
Битовая глубина                          : 16 бит
Метод сжатия                             : С потерями
Размер потока                            : 277 Мбайт (4%)
Язык                                     : Russian
Default                                  : Нет
Forced                                   : Нет
Аудио #2
Идентификатор                            : 3
Формат                                   : AC-3
Формат/Информация                        : Audio Coding 3
Расширение режима                        : CM (complete main)
Параметр Endianness формата              : Big
Идентификатор кодека                     : A_AC3
Продолжительность                        : 1 ч. 0 м.
Вид битрейта                             : Постоянный
Битрейт                                  : 640 Кбит/сек
Каналы                                   : 6 каналов
Расположение каналов                     : Front: L C R, Side: L R, LFE
Частота                                  : 48,0 КГц
Битовая глубина                          : 16 бит
Метод сжатия                             : С потерями
Размер потока                            : 277 Мбайт (4%)
Заголовок                                : Musical
Default                                  : Нет
Forced                                   : Нет
Текст
Идентификатор                            : 4
Формат                                   : UTF-8
Идентификатор кодека                     : S_TEXT/UTF8
Идентификатор кодека/Информация          : UTF-8 Plain Text
Язык                                     : Russian
Default                                  : Нет
Forced                                   : Нет
Меню
00:00:00.000                             : :01
00:00:26.485                             : :02
00:12:24.035                             : :03
00:32:59.227                             : :04
00:50:46.126                             : :05
21.12.2012 - Релиз обновлён - добавлена русская дорожка и субтитры. Желающие, скачайте заново торрент-файл.
Благодарности релизеру (37)

Торрент:

Статус:

Размер:

Зарегистрирован   [ 2012-12-21 18:15 ]

проверено

6.04 GB

 
 Мнение о фильме (4)





Как красива Земля в новой эре,после конца света!!!Спасибо!!!
 

StarStranger,
 

красивые виды природы ,но причем здесь 3д ? лошади, утки, много воды ,травы ,цветы были в 3д и еще маленькие птички -красиво ,но в основном пейзажи и стихи 17 века английских поэтов ну может есть любители ..но мы же не для этого скачиваем на маленьких скоростях по 4 часа ?
 

sisters, А для чего вы скачиваете 3Д? Поделитесь,может и нам туда надо...