Торренты   
 
 

 

Приключения Тинтина: Тайна Единорога / The Adventures of Tintin: The Secret of the Unicorn (Стивен Спилберг) [2011 г., Anamorph SideBySide]

Рейтинг 3D:
57 голосов
8.2
Рейтинг фильма:
59 голосов
8.4
 
Вы должны быть авторизированы,
чтобы ставить оценки


Приключения Тинтина: Тайна Единорога / The Adventures of Tintin: The Secret of the Unicorn
Год выпуска: 2011
Страна: США / Новая Зеландия, Columbia Pictures
Жанр: мультфильм, боевик, детектив, приключения, семейный
Продолжительность: 01:46:45
Перевод: Профессиональный (полное дублирование)
Режиссер: Стивен Спилберг
В ролях: Джейми Белл, Энди Серкис, Дэниэл Крэйг, Саймон Пегг, Кэри Элвис, Тоби Джонс, Ник Фрост, Себастьян Роше, Маккензи Крук, Тони Карран
Описание: Главный герой — молодой газетный репортёр Тинтин. Благодаря своей профессии он путешествует по всему миру и становится участником увлекательных приключений.
Рип с 99.9% совместимостью тут http://torrents3d.ru/viewtopic.php?t=2610
Скачайте семпл и проверьте на своем ТВ.
http://fileplanet.com.ua/jdfuu4hg5f3z/The.Adventure...s.Eng_sample.mkv
или
http://narod.ru/disk/42187586001.c062bd39dc8fb0e87d..._sample.mkv.html
Формат 3d: Anamorph SideBySide
Порядок ракурсов: Параллельная пара
Видео: x.264 High@L5.1 / 1920х1080p / 23,976 fps / 11 000 Kbps
Аудио#1: Русский / AC3 / 5.1 ch / 448 Kbps
Аудио#2: Английский / DTS / 5.1 ch / 1536 Kbps
Субтитри 3D: Russian, English

Скриншоты



MediaInfo

General
Unique ID : 220058215226696378689176081778855038922 (0xA58DABADD740B65D95555EB46C76CFCA)
Complete name : The.Adventures.of.Tintin.The.Secret.of.the.Unicorn.3D.Rus.Eng.mkv
Format : Matroska
File size : 9.85 GiB
Duration : 1h 46mn
Overall bit rate : 13.2 Mbps
Encoded date : UTC 2012-02-27 12:41:43
Writing application : mkvmerge v5.3.0 ('I could have danced') built on Feb 9 2012 10:38:07
Writing library : libebml v1.2.3 + libmatroska v1.3.0
Video
ID : 1
Format : AVC
Format/Info : Advanced Video Codec
Format profile : High@L5.1
Format settings, CABAC : Yes
Format settings, ReFrames : 2 frames
Muxing mode : Header stripping
Codec ID : V_MPEG4/ISO/AVC
Duration : 1h 46mn
Bit rate : 11.0 Mbps
Width : 1 920 pixels
Height : 1 080 pixels
Display aspect ratio : 16:9
Frame rate : 23.976 fps
Color space : YUV
Chroma subsampling : 4:2:0
Bit depth : 8 bits
Scan type : Progressive
Bits/(Pixel*Frame) : 0.221
Stream size : 8.20 GiB (83%)
Writing library : x264 core
Language : English
Color primaries : BT.709-5, BT.1361, IEC 61966-2-4, SMPTE RP177
Transfer characteristics : BT.709-5, BT.1361
Matrix coefficients : BT.709-5, BT.1361, IEC 61966-2-4 709, SMPTE RP177
Audio #1
ID : 2
Format : AC-3
Format/Info : Audio Coding 3
Mode extension : CM (complete main)
Muxing mode : Header stripping
Codec ID : A_AC3
Duration : 1h 46mn
Bit rate mode : Constant
Bit rate : 448 Kbps
Channel(s) : 6 channels
Channel positions : Front: L C R, Side: L R, LFE
Sampling rate : 48.0 KHz
Bit depth : 16 bits
Compression mode : Lossy
Stream size : 342 MiB (3%)
Title : Russian AC3
Language : Russian
Audio #2
ID : 3
Format : DTS
Format/Info : Digital Theater Systems
Muxing mode : Header stripping
Codec ID : A_DTS
Duration : 1h 46mn
Bit rate mode : Constant
Bit rate : 1 510 Kbps
Channel(s) : 6 channels
Channel positions : Front: L C R, Side: L R, LFE
Sampling rate : 48.0 KHz
Bit depth : 16 bits
Compression mode : Lossy
Stream size : 1.13 GiB (11%)
Title : English DTS
Language : English
Text #1
ID : 4
Format : VobSub
Muxing mode : zlib
Codec ID : S_VOBSUB
Codec ID/Info : The same subtitle format used on DVDs
Title : Russian
Language : Russian
Text #2
ID : 5
Format : VobSub
Muxing mode : zlib
Codec ID : S_VOBSUB
Codec ID/Info : The same subtitle format used on DVDs
Title : English
Language : English
Menu
00:00:00.000 : en:(01)00:00:00:000
00:05:39.297 : en:(02)00:05:39:297
00:12:12.314 : en:(03)00:12:12:314
00:17:11.363 : en:(04)00:17:11:363
00:25:36.868 : en:(05)00:25:36:868
00:32:37.580 : en:(06)00:32:37:580
00:37:55.314 : en:(07)00:37:55:314
00:42:29.838 : en:(08)00:42:29:838
00:50:52.507 : en:(09)00:50:52:507
00:56:27.217 : en:(10)00:56:27:217
01:02:19.610 : en:(11)01:02:19:610
01:11:58.981 : en:(12)01:11:58:981
01:20:03.965 : en:(13)01:20:03:965
01:27:30.995 : en:(14)01:27:30:995
01:34:12.813 : en:(15)01:34:12:813
01:40:30.482 : en:(16)01:40:30:482
P.S. Если у кого правильный рип, заменяйте без зазрения совести.
Остальные раздачи этого фильма (5)
Благодарности релизеру (3)

Торрент:

Статус:

Размер:

Зарегистрирован   [ 2012-02-28 12:29 ]

* не проверено

9.85 GB