Торренты   
 
 

 

Мультачки: Байки Мэтра. Аэро-Мэтр / Mater's Tall Tales: Air Mater [2011, BDrip, half1080p, Anamorph OverUnder]

Рейтинг 3D:
1 голосов
8.0
Рейтинг фильма:
1 голосов
6.0
 
Вы должны быть авторизированы,
чтобы ставить оценки


Мультачки: Байки Мэтра. Аэро-МэтрMater's Tall Tales: Air Mater
Год выпуска: 2011
Страна: США (Walt Disney Pictures, Pixar Animation Studios)
Жанр: Мультфильм, Семейный, Комедия
Продолжительность: 00:05:22
Перевод: Профессиональный (дублированный)
Режиссеры: Роб Гиббс, Джон Лассетер, Виктор Навоне / Rob Gibbs, John Lasseter, Victor Navone
Описание: Главный герой этих историй, друг гонщика Молнии МакКуин — грузовичок «Мэтр» из городка Радиатор-Спрингс. В своих рассказах он предстаёт перед зрителем в неповторимых образах лихого спасателя, дипломированного доктора, расскажет о том как он был звездой каскадерского авто-шоу, и победителем среди стритрейсеров на автогонках в Токио. Мэтр выдумывает нереальные истории, в которые то и дело втягивает своего товарища МакКуина. При этом Молнии далеко не всегда в историях Мэтра достаются удачные роли…
Данная история о том, как Мэтр хотел стать летающим грузовиком.
Доп. информация: Доп с БД Тачки 2 (Cars 2).
За рус. аудио и субтитры спасибо 2 SkazhutinПроверено на встроенном плейере ТВ Samsung UE-C7000Формат 3d: Anamorph OverUnder
Качество: BDrip
Контейнер: MKV
Видео: AVC / 1920х1080p / 23,976 fps / 8 183 Kbps
Аудио#1: Русский / AC3 / 48 KHz / 5.1 ch / 640 Kbps
Аудио#2: Английский / AC3 / 48 KHz / 5.1 ch / 640 Kbps
Субтитры вшитые softsub srt: русские форсированные, украинские форсированные и полные
Субтитры внешние srt: русские форсированные и украинские форсированные

MediaInfo

General
UniqueID : 253850852115428791370638101607650777532 (0xBEF9E54FDABC6DC5B3177E59398959BC)
Complete name : F:\Downloads\Mater'sTallTales.AirMater(3D)2011.halfOU(Ash61)\Mater'sTallTales.AirMater(3D)2011.halfOU(Ash61).mkv
Format : Matroska
File size : 375 MiB
Duration : 5mn 25s
Overall bit rate : 9 655 Kbps
Movie name : Mater's Tall Tales: Air Mater (3D) 2011 (Ash61)
Encoded date : UTC 2012-03-01 13:01:02
Writing application : mkvmerge v3.4.0 ('Rapunzel') сборка от May 15 2010 09:38:20
Writing library : libebml v0.8.0 + libmatroska v0.9.0
Video
ID : 1
Format : AVC
Format/Info : Advanced Video Codec
Format profile : High@L4.1
Format settings, CABAC : Yes
Format settings, ReFrames : 4 frames
Format settings, GOP : M=6, N=9
Codec ID : V_MPEG4/ISO/AVC
Duration : 5mn 25s
Bit rate : 8 183 Kbps
Width : 1 920 pixels
Height : 1 080 pixels
Display aspect ratio : 16:9
Frame rate : 23.976 fps
Color space : YUV
Chroma subsampling : 4:2:0
Bit depth : 8 bits
Scan type : Progressive
Bits/(Pixel*Frame) : 0.165
Stream size : 318 MiB (85%)
Title : BDrip by Ash61
Writing library : x264 core 119 r2106 07efeb4
Encoding settings : cabac=1 / ref=4 / deblock=1:-3:-3 / analyse=0x3:0x113 / me=umh / subme=9 / psy=1 / psy_rd=1.00:0.15 / mixed_ref=1 / me_range=16 / chroma_me=1 / trellis=2 / 8x8dct=1 / cqm=0 / deadzone=21,11 / fast_pskip=1 / chroma_qp_offset=-3 / threads=3 / sliced_threads=0 / nr=0 / decimate=1 / interlaced=0 / bluray_compat=0 / constrained_intra=0 / bframes=6 / b_pyramid=2 / b_adapt=2 / b_bias=0 / direct=3 / weightb=1 / open_gop=0 / weightp=2 / keyint=250 / keyint_min=23 / scenecut=40 / intra_refresh=0 / rc_lookahead=60 / rc=crf / mbtree=1 / crf=17.0 / qcomp=0.70 / qpmin=0 / qpmax=69 / qpstep=4 / vbv_maxrate=40000 / vbv_bufsize=40000 / crf_max=0.0 / nal_hrd=none / ip_ratio=1.40 / aq=1:0.70
Audio #1
ID : 2
Format : AC-3
Format/Info : Audio Coding 3
Mode extension : CM (complete main)
Codec ID : A_AC3
Duration : 5mn 25s
Bit rate mode : Constant
Bit rate : 640 Kbps
Channel(s) : 6 channels
Channel positions : Front: L C R, Side: L R, LFE
Sampling rate : 48.0 KHz
Bit depth : 16 bits
Compression mode : Lossy
Stream size : 24.8 MiB (7%)
Title : Дубляж
Language : Russian
Audio #2
ID : 3
Format : AC-3
Format/Info : Audio Coding 3
Mode extension : CM (complete main)
Codec ID : A_AC3
Duration : 5mn 25s
Bit rate mode : Constant
Bit rate : 640 Kbps
Channel(s) : 6 channels
Channel positions : Front: L C R, Side: L R, LFE
Sampling rate : 48.0 KHz
Bit depth : 16 bits
Compression mode : Lossy
Stream size : 24.8 MiB (7%)
Language : English
Text #1
ID : 4
Format : UTF-8
Codec ID : S_TEXT/UTF8
Codec ID/Info : UTF-8 Plain Text
Title : forced
Language : Russian
Text #2
ID : 5
Format : UTF-8
Codec ID : S_TEXT/UTF8
Codec ID/Info : UTF-8 Plain Text
Title : forced
Language : Ukrainian
Text #3
ID : 6
Format : UTF-8
Codec ID : S_TEXT/UTF8
Codec ID/Info : UTF-8 Plain Text
Title : Полные
Language : Ukrainian

Скриншоты

Господа копипастеры, пожалуйста, уважайте труд рипперов -
не "забывайте" указывать авторство в своих релизах!
Благодарности релизеру (3)

Торрент:

Статус:

Размер:

Зарегистрирован   [ 2012-03-01 22:13 ]

проверено

375 MB