Торренты   
 
 

 

Безумные мелодии: Сильвестр и Твити / Looney Tunes: I Tawt I Taw A Puddy Tat [2011, BDrip, half1080p, Anamorph OverUnder]

Рейтинг 3D:
14 голосов
7.9
Рейтинг фильма:
14 голосов
7.2
 
Вы должны быть авторизированы,
чтобы ставить оценки


Безумные мелодии: Сильвестр и ТвитиLooney Tunes: I Tawt I Taw A Puddy Tat
Год выпуска: 2011
Страна: США (Warner Bros. Animation, A Looney Tunes Production)
Жанр: Мультфильм, Семейный, Комедия, Короткометражка
Продолжительность: 00:03:48
Перевод: Не обязателен
Русские субтитры: тут
Режиссер: Мэттью О'Каллаган / Matthew O'Callaghan
Описание: Новые забавные приключения кота Сильвестра и канарейки Твити.
Доп. информация: Доп с БД Делай ноги 2 (Happy Feet Two)--Проверено на встроенном плейере ТВ Samsung UE-C7000--Формат 3d: Anamorph OverUnder
Качество: BDrip
Контейнер: MKV
Видео: AVC / 1920х1080p / 23,976 fps / 8 991 Kbps
Аудио: Английский / AC3 / 48 KHz / 5.1 ch / 640 Kbps

MediaInfo

General
UniqueID : 252259737020502063157159335739016712691 (0xBDC77547F2EC91A886285FDE33D191F3)
Complete name : F:\Downloads\ITawtITawAPuddyTat(3D)2011.halfOU(Ash61).mkv
Format : Matroska
File size : 269 MiB
Duration : 3mn 49s
Overall bit rate : 9 827 Kbps
Movie name : I Tawt I Taw A Puddy Tat (3D) 2011 (Ash61)
Encoded date : UTC 2012-03-01 12:54:48
Writing application : mkvmerge v3.4.0 ('Rapunzel') сборка от May 15 2010 09:38:20
Writing library : libebml v0.8.0 + libmatroska v0.9.0
Video
ID : 1
Format : AVC
Format/Info : Advanced Video Codec
Format profile : High@L4.1
Format settings, CABAC : Yes
Format settings, ReFrames : 4 frames
Codec ID : V_MPEG4/ISO/AVC
Duration : 3mn 49s
Bit rate : 8 991 Kbps
Width : 1 920 pixels
Height : 1 080 pixels
Display aspect ratio : 16:9
Frame rate : 23.976 fps
Color space : YUV
Chroma subsampling : 4:2:0
Bit depth : 8 bits
Scan type : Progressive
Bits/(Pixel*Frame) : 0.181
Stream size : 246 MiB (91%)
Title : BDrip by Ash61
Writing library : x264 core 119 r2106 07efeb4
Encoding settings : cabac=1 / ref=4 / deblock=1:-3:-3 / analyse=0x3:0x113 / me=umh / subme=9 / psy=1 / psy_rd=1.00:0.15 / mixed_ref=1 / me_range=16 / chroma_me=1 / trellis=2 / 8x8dct=1 / cqm=0 / deadzone=21,11 / fast_pskip=1 / chroma_qp_offset=-3 / threads=3 / sliced_threads=0 / nr=0 / decimate=1 / interlaced=0 / bluray_compat=0 / constrained_intra=0 / bframes=6 / b_pyramid=2 / b_adapt=2 / b_bias=0 / direct=3 / weightb=1 / open_gop=0 / weightp=2 / keyint=250 / keyint_min=23 / scenecut=40 / intra_refresh=0 / rc_lookahead=60 / rc=crf / mbtree=1 / crf=17.0 / qcomp=0.70 / qpmin=0 / qpmax=69 / qpstep=4 / vbv_maxrate=40000 / vbv_bufsize=40000 / crf_max=0.0 / nal_hrd=none / ip_ratio=1.40 / aq=1:0.70
Audio
ID : 2
Format : AC-3
Format/Info : Audio Coding 3
Mode extension : CM (complete main)
Codec ID : A_AC3
Duration : 3mn 49s
Bit rate mode : Constant
Bit rate : 640 Kbps
Channel(s) : 6 channels
Channel positions : Front: L C R, Side: L R, LFE
Sampling rate : 48.0 KHz
Bit depth : 16 bits
Compression mode : Lossy
Stream size : 17.5 MiB (7%)
Language : English

Скриншоты

Господа копипастеры, пожалуйста, уважайте труд рипперов -
не "забывайте" указывать авторство в своих релизах!
Благодарности релизеру (18)

Торрент:

Статус:

Размер:

Зарегистрирован   [ 2012-03-01 22:56 ]

проверено

269 MB

 
 Мнение о фильме (11)





Спасибо! Очень понравился мульт!
 

Спасибо!!! Классный мульт. Очень понравился! Детки в восторге! 3d в норме.
 

Мульт забавный, 3d на уровне! Но это явно не для детей, а скорее из серии "вспомни молодость". Концентрированная жестокость. Это вам не "Ну, погоди!". Сцены насилия (да чего там, весь мульт это одна сплошная сцена насилия) слишком реалистичны. Даже я вздрогнул, когда кот этого птенчика вилкой пырнул. Можете сказать, мол, что разбрюзжался, где твоё чувство юмора, это же всё стёб. Но я глубоко убеждён, что детям с неокрепшей психикой смотреть такое крайне противопоказано. Чтоб потом не удивляться что одноклассники друг друга из помпового ружья расстреливают.
 

Отличный мультик! 3D в норме. Спасибо за дубляж. Заменил аудиодорожку. Теперь на русском.
 

Огромное Вам спосибо.Ребёнок был восторге.
 
Евгений В Р Профиль 30-Июл-2013 06:40

Спасибо! Мультик отличный.
 

Мультик так себе, очень жестокий, да и вылетов мало, про Койота куда 3Д эффектнее
 

Звуковая дорожка!!! полностью на русском песенка исполняется на русском
http://rghost.ru/49657427
 

Большое спасибо за мультик !!!!!
 

Была бы возможность поставить отрицательную оценку, поставил бы -10.
 

ребят а он кароткий припаминаю вроде в интернете смотрел и был короткий