Торренты   
 
 

 

Хранитель времени / Hugo [2011, BDrip, half1080p, Anamorph OverUnder]

Рейтинг 3D:
77 голосов
8.7
Рейтинг фильма:
73 голосов
8.0
 
Вы должны быть авторизированы,
чтобы ставить оценки




Хранитель времениHugo

Год выпуска: 2011
Страна: США (Paramount Pictures, Infinitum Nihil Production, GK Films)
Жанр: Приключения, Детектив, Семейный
Продолжительность: 02:06:19
Перевод: Профессиональный (полное дублирование)
Режиссер: Мартин Скорсезе / Martin ScorseseРоли исполняли (Дублировали):Хьюго Кабре - Аса Баттерфилд (Никита Сологалов)
Жорж Мельес - Бен Кингсли (Никита Прозоровский)
Изабелль - Хлоя Грейс Морец
Станционный инспектор - Саша Барон Коэн (Александр Гаврилин)
Лизетт - Эмили Мортимер
Мама Жанна - Хелен МакКрори (Любовь Германова)
Мсье Лябисс - Кристофер Ли (Борис Быстров)
Рене Табар - Майкл Стулбарг (Диомид Виноградов)
Папа Хьюго - Джуд Лоу (Василий Дахненко)
Дядя Клод - Рэй Уинстон (Александр Новиков)
Мадам Эмили - Фрэнсис де ла Тур
Мсье Фрик - Ричард Гриффитс
Описание: Действие разворачивается во Франции начала 30-х. Главный герой, мальчик-сирота Хьюго, проживающий в стенах парижского вокзала со своим дядей-алкоголиком, случайно находит таинственный механизм, созданный знаменитым фильммейкером Жоржем Мельесом. Эта находка запускает цепную реакцию удивительных событий, которые в конечном итоге помогут Хьюго разгадать тайну его покойного отца.--Проверено на встроенном плейере ТВ Samsung UE-C7000 --Формат 3d: Anamorph OverUnder
Качество: BDrip
Контейнер: MKV
Видео: AVC / 1920х1080p / 23,976 fps / 7960 Kbps
Аудио#1: Русский / AC3 / 48 KHz / 5.1 ch / 448 Kbps
Аудио#2: Украинский / AC3 / 48 KHz / 2 ch / 384 Kbps
Аудио#3: Английский / AC3 / 48 KHz / 5.1 ch / 640 Kbps
Субтитры: внешние srt (Русские полные [Voronine], Русские полные [АДмин], Английские, Английские SDH).

MediaInfo

General
UniqueID : 210002303263547466632328951689796607168 (0x9DFCF8F0D0CFE050B476714D43B75CC0)
Complete name : F:\Downloads\Hugo(3D)2011.halfOU(ash61)\Hugo(3D)2011.halfOU(ash61).mkv
Format : Matroska
File size : 8.49 GiB
Duration : 2h 6mn
Overall bit rate : 9 624 Kbps
Movie name : Hugo (3D) 2011 (Ash61)
Encoded date : UTC 2012-02-29 21:27:03
Writing application : mkvmerge v3.4.0 ('Rapunzel') сборка от May 15 2010 09:38:20
Writing library : libebml v0.8.0 + libmatroska v0.9.0
Video
ID : 1
Format : AVC
Format/Info : Advanced Video Codec
Format profile : High@L4.1
Format settings, CABAC : Yes
Format settings, ReFrames : 4 frames
Format settings, GOP : M=1, N=16
Codec ID : V_MPEG4/ISO/AVC
Duration : 2h 6mn
Bit rate : 7 960 Kbps
Width : 1 920 pixels
Height : 1 080 pixels
Display aspect ratio : 16:9
Frame rate : 23.976 fps
Color space : YUV
Chroma subsampling : 4:2:0
Bit depth : 8 bits
Scan type : Progressive
Bits/(Pixel*Frame) : 0.160
Stream size : 7.03 GiB (83%)
Title : BDrip by Ash61
Writing library : x264 core 119 r2106 07efeb4
Encoding settings : cabac=1 / ref=4 / deblock=1:-3:-3 / analyse=0x3:0x113 / me=umh / subme=9 / psy=1 / psy_rd=1.00:0.15 / mixed_ref=1 / me_range=16 / chroma_me=1 / trellis=2 / 8x8dct=1 / cqm=0 / deadzone=21,11 / fast_pskip=1 / chroma_qp_offset=-3 / threads=3 / sliced_threads=0 / nr=0 / decimate=1 / interlaced=0 / bluray_compat=0 / constrained_intra=0 / bframes=6 / b_pyramid=2 / b_adapt=2 / b_bias=0 / direct=3 / weightb=1 / open_gop=0 / weightp=2 / keyint=250 / keyint_min=23 / scenecut=40 / intra_refresh=0 / rc_lookahead=60 / rc=crf / mbtree=1 / crf=18.0 / qcomp=0.70 / qpmin=0 / qpmax=69 / qpstep=4 / vbv_maxrate=40000 / vbv_bufsize=40000 / crf_max=0.0 / nal_hrd=none / ip_ratio=1.40 / aq=1:0.70
Audio #1
ID : 2
Format : AC-3
Format/Info : Audio Coding 3
Mode extension : CM (complete main)
Codec ID : A_AC3
Duration : 2h 6mn
Bit rate mode : Constant
Bit rate : 448 Kbps
Channel(s) : 6 channels
Channel positions : Front: L C R, Side: L R, LFE
Sampling rate : 48.0 KHz
Bit depth : 16 bits
Compression mode : Lossy
Stream size : 405 MiB (5%)
Title : Дубляж
Language : Russian
Audio #2
ID : 3
Format : AC-3
Format/Info : Audio Coding 3
Format profile : Dolby Digital
Mode extension : CM (complete main)
Codec ID : A_AC3
Duration : 2h 6mn
Bit rate mode : Constant
Bit rate : 384 Kbps
Channel(s) : 2 channels
Channel positions : Front: L R
Sampling rate : 48.0 KHz
Bit depth : 16 bits
Compression mode : Lossy
Stream size : 347 MiB (4%)
Title : Дубляж
Language : Ukrainian
Audio #3
ID : 4
Format : AC-3
Format/Info : Audio Coding 3
Mode extension : CM (complete main)
Codec ID : A_AC3
Duration : 2h 6mn
Bit rate mode : Constant
Bit rate : 640 Kbps
Channel(s) : 6 channels
Channel positions : Front: L C R, Side: L R, LFE
Sampling rate : 48.0 KHz
Bit depth : 16 bits
Compression mode : Lossy
Stream size : 578 MiB (7%)
Language : English
Menu
00:00:00.000 : :1
00:09:35.533 : :2
00:17:20.665 : :3
00:23:32.911 : :4
00:30:34.541 : :5
00:38:26.262 : :6
00:47:36.270 : :7
00:55:37.543 : :8
01:03:43.695 : :9
01:12:46.862 : :10
01:19:59.169 : :11
01:27:10.100 : :12
01:33:03.495 : :13
01:42:41.280 : :14
01:53:47.779 : :15
01:59:58.441 : :16

Скриншоты

Господа копипастеры, пожалуйста, уважайте труд рипперов -
не "забывайте" указывать авторство в своих релизах!
Остальные раздачи этого фильма (3)
Благодарности релизеру (96)

Торрент:

Статус:

Размер:

Зарегистрирован   [ 2012-03-15 03:24 ]

проверено

8.49 GB

 
 Мнение о фильме (25)

Пред.  1, 2






Фильм ни о чем, унылое Г. Ни ума у авторов, ни фантазии, ни, соответственно, сюжета.
 

Фильм хороший, вдохновляющий и полон скрытого, доброго смысла. Но это лишь ИМХО, а также моего отца (у него вообще этот фильм сразу стал любимым). Не обещаю, что вам понравится, так как это зависит только от вас. А от меня твердое 10, выше всяких похвал.
 

друзья, пожалуйста, сделать обмен с уважением прошу
 

Пожалуйста, дайте вашим друзьям поделиться
 

СПАСИБО!!!
 

Страница 2 из 2

Пред.  1, 2