Торренты   
 
 


Магия гор 3Д / Magie der Bergwelt 3D (Мартон Преч / Marton Prech) [2011, 1080p, BDRip, Anamorph OverUnder]

Рейтинг 3D:
Пока никто не голосовал
Рейтинг фильма:
Пока никто не голосовал
 
Вы должны быть авторизированы,
чтобы ставить оценки


Магия гор 3D / Magie der Bergwelt 3D
Год выпуска: 2011
Страна: Германия
Студия: SchroderMedia
Жанр: документальный, видовой, релакс
Продолжительность: 00:41:49
Перевод: Не требуется
Русские субтитры: нет
Режиссер: Мартон Преч / Marton Prech
Описание: Заснеженные и сокрытые туманом горные хребты, прозрачные озера и ревущие водопады, глубокие пещеры и живописные поселки, альпийские буренки и дикие животные - все это в новом стерео фильме Мартона Преча, под расслабляющую музыку Сабольч Кови.--Проверено на встроенном плейере ТВ Samsung UE-D7000 --Качество: BDrip
Контейнер: MKV
Формат 3D: Half OverUnder / Вертикальная анаморфная стереопара
Порядок ракурсов: левый ракурс первый
Видео кодек: x264
Видео: AVC / 1920x1080p / 23.98fps / 12200 kbps
Аудио 1: AC3 / 48000Hz / 5.1 ch / 640 Kbps
Аудио 2: DTS / 48000Hz / 5.1 ch / 1510 Kbps
Субтитры: Отсутствуют

MediaInfo

General
Complete name : Mystic.Mountains.2011.3D.H-OU.1080p.z-man.The3DTeam.mkv
Format : Matroska
File size : 4.29 GiB
Duration : 41mn 50s
Overall bit rate : 14.7 Mbps
Encoded date : UTC 2012-03-07 04:23:22
Writing application : mkvmerge v3.3.0 ('Language') built on Mar 24 2010 14:59:24
Writing library : libebml v0.8.0 + libmatroska v0.9.0
Video
ID : 1
Format : AVC
Format/Info : Advanced Video Codec
Format profile : High@L4.1
Format settings, CABAC : Yes
Format settings, ReFrames : 4 frames
Codec ID : V_MPEG4/ISO/AVC
Duration : 41mn 50s
Bit rate : 12.2 Mbps
Width : 1 920 pixels
Height : 1 080 pixels
Display aspect ratio : 16:9
Frame rate : 23.976 fps
Color space : YUV
Chroma subsampling : 4:2:0
Bit depth : 8 bits
Scan type : Progressive
Bits/(Pixel*Frame) : 0.246
Stream size : 3.58 GiB (83%)
Title : Mystic.Mountains.2011.3D.H-OU.1080p.z-man.The3DTeam
Writing library : x264 core 120 r2164 da19765
Encoding settings : cabac=1 / ref=4 / deblock=1:-3:-3 / analyse=0x3:0x113 / me=umh / subme=7 / psy=1 / psy_rd=1.00:0.15 / mixed_ref=1 / me_range=16 / chroma_me=1 / trellis=1 / 8x8dct=1 / cqm=0 / deadzone=21,11 / fast_pskip=1 / chroma_qp_offset=-3 / threads=12 / sliced_threads=0 / nr=0 / decimate=1 / interlaced=0 / bluray_compat=0 / constrained_intra=0 / bframes=3 / b_pyramid=2 / b_adapt=1 / b_bias=0 / direct=3 / weightb=1 / open_gop=0 / weightp=2 / keyint=250 / keyint_min=23 / scenecut=40 / intra_refresh=0 / rc_lookahead=40 / rc=crf / mbtree=1 / crf=20.0 / qcomp=0.60 / qpmin=10 / qpmax=69 / qpstep=4 / ip_ratio=1.40 / aq=1:1.00
Audio #1
ID : 2
Format : AC-3
Format/Info : Audio Coding 3
Mode extension : CM (complete main)
Codec ID : A_AC3
Duration : 41mn 50s
Bit rate mode : Constant
Bit rate : 640 Kbps
Channel(s) : 6 channels
Channel positions : Front: L C R, Side: L R, LFE
Sampling rate : 48.0 KHz
Bit depth : 16 bits
Stream size : 192 MiB (4%)
Audio #2
ID : 3
Format : DTS
Format/Info : Digital Theater Systems
Codec ID : A_DTS
Duration : 41mn 50s
Bit rate mode : Constant
Bit rate : 1 510 Kbps
Channel(s) : 6 channels
Channel positions : Front: L C R, Side: L R, LFE
Sampling rate : 48.0 KHz
Bit depth : 24 bits
Video delay : 11ms
Stream size : 452 MiB (10%)
Title : instrumental music

Скриншоты



Спасибо за рип z-man и The3DTeam
Благодарности релизеру (10)

Торрент:

Статус:

Размер:

Зарегистрирован   [ 2012-03-07 19:30 ]

проверено

4.29 GB