Торренты   
 
 

 

Цирк океана: Вокруг света под водой / Ocean Circus 3D: Underwater Around the World [2012, BDrip, half1080p, Anamorph OverUnder]

Рейтинг 3D:
1 голосов
8.0
Рейтинг фильма:
Пока никто не голосовал
 
Вы должны быть авторизированы,
чтобы ставить оценки


Цирк океана: Вокруг света под водойOcean Circus 3D: Underwater Around the World
Год выпуска: 2012
Страна: Германия (Oliver Schindler Filmproduction)
Жанр: Документальный, Видовой
Продолжительность: 01:46:12
Перевод: Отсутствует
Режиссер: Оливер Шиндлер / Oliver Schindler
Описание: Этот документальный фильм приглашает вас в путешествие вокруг света под водой.
Доп. информация: ИМХО - очень интересный, красивый, разнообразный фильм. К сожалению, качество не IMAX и перевод "не помешал бы".
В последнее время HDclub нас "балует" русскими озвучками, но это требует финансирования! Присоединяйтесь, друзья, кто сколько сможет!--Проверено на встроенном плейере ТВ Samsung UE-C7000 --Формат 3d: Anamorph OverUnder
Качество: BDrip
Контейнер: MKV
Видео: AVC / 1920х1080p / 23,976 fps / 17.8 Mbps
Аудио: Английский / AC3 / 48 KHz / 5.1 ch / 384 Kbps

MediaInfo

General
UniqueID : 205357407100083929394160871353059265318 (0x9A7E65E0F0E4E63ABD8B7034C32A4B26)
Complete name : F:\Downloads\OceanCircus3D.UnderwaterAroundTheWorld.2012.halfOU(ash61).mkv
Format : Matroska
File size : 13.8 GiB
Duration : 1h 46mn
Overall bit rate : 18.6 Mbps
Movie name : Ocean Circus 3D: Underwater Around the World (2012)(Ash61)
Encoded date : UTC 2012-03-09 12:13:05
Writing application : mkvmerge v3.4.0 ('Rapunzel') сборка от May 15 2010 09:38:20
Writing library : libebml v0.8.0 + libmatroska v0.9.0
Video
ID : 1
Format : AVC
Format/Info : Advanced Video Codec
Format profile : High@L4.1
Format settings, CABAC : Yes
Format settings, ReFrames : 4 frames
Codec ID : V_MPEG4/ISO/AVC
Duration : 1h 46mn
Bit rate : 17.8 Mbps
Width : 1 920 pixels
Height : 1 080 pixels
Display aspect ratio : 16:9
Frame rate : 23.976 fps
Color space : YUV
Chroma subsampling : 4:2:0
Bit depth : 8 bits
Scan type : Progressive
Bits/(Pixel*Frame) : 0.358
Stream size : 13.2 GiB (96%)
Title : BDrip by Ash61
Writing library : x264 core 119 r2106 07efeb4
Encoding settings : cabac=1 / ref=4 / deblock=1:-3:-3 / analyse=0x3:0x113 / me=umh / subme=9 / psy=1 / psy_rd=1.00:0.15 / mixed_ref=1 / me_range=16 / chroma_me=1 / trellis=2 / 8x8dct=1 / cqm=0 / deadzone=21,11 / fast_pskip=1 / chroma_qp_offset=-3 / threads=3 / sliced_threads=0 / nr=0 / decimate=1 / interlaced=0 / bluray_compat=0 / constrained_intra=0 / bframes=6 / b_pyramid=2 / b_adapt=2 / b_bias=0 / direct=3 / weightb=1 / open_gop=0 / weightp=2 / keyint=250 / keyint_min=23 / scenecut=40 / intra_refresh=0 / rc_lookahead=60 / rc=crf / mbtree=1 / crf=18.0 / qcomp=0.70 / qpmin=10 / qpmax=69 / qpstep=4 / vbv_maxrate=40000 / vbv_bufsize=40000 / crf_max=0.0 / nal_hrd=none / ip_ratio=1.40 / aq=1:0.70
Audio
ID : 2
Format : AC-3
Format/Info : Audio Coding 3
Mode extension : CM (complete main)
Codec ID : A_AC3
Duration : 1h 46mn
Bit rate mode : Constant
Bit rate : 384 Kbps
Channel(s) : 6 channels
Channel positions : Front: L C R, Side: L R, LFE
Sampling rate : 48.0 KHz
Bit depth : 16 bits
Compression mode : Lossy
Stream size : 292 MiB (2%)
Language : English
Menu
00:00:00.000 : :1
00:15:36.185 : :2
00:26:48.816 : :3
00:33:54.157 : :4
00:39:12.892 : :5
00:55:32.204 : :6
01:13:24.525 : :7
01:28:25.842 : :8
01:45:48.092 : :9
Господа копипастеры, пожалуйста, уважайте труд рипперов -
не "забывайте" указывать авторство в своих релизах!
Благодарности релизеру (1)

Торрент:

Статус:

Размер:

Зарегистрирован   [ 2012-03-09 20:05 ]

проверено

13.78 GB