Торренты   
 
 

 

Букашки! в 3Д / Bugs! 3D (Майк Сли / Mike Slee) [2003, BDrip, 1080p, Full OverUnder]

Рейтинг 3D:
45 голосов
8.7
Рейтинг фильма:
45 голосов
8.5
 
Вы должны быть авторизированы,
чтобы ставить оценки


Букашки! / Bugs!

Год выпуска: 2003
Страна: Великобритания
Студия: Terminix
Жанр: документальный
Продолжительность: 00:40:02
Перевод: Одноголосый закадровый
Русские субтитры: нет
Режиссер на русском: Майк Сли
Режиссер на английском: Mike Slee
Описание: Фильм, рассказывающий о жизни насекомых в тропических лесах. Зритель следит за судьбой бабочки и богомола, живущих на одной поляне, с момента их рождения. Не остаются без внимания и другие насекомые, жизнь которых, как выясняется, полна приключений и трудностей…
На встроенных ТВ-плейерах работать не будет!!!
Качество: BDrip
Контейнер: MKV
Формат 3D: OverUnder / Вертикальная стереопара
Порядок ракурсов: левый ракурс первый
Видео кодек: x264
Аудио кодек: AC3, DTS
Видео: AVC / 1920х2160 / 23,976 кадр/сек / 29,0 Мбит/сек
Аудио 1: Русский / AC3 / 48 KHz / 5.1 ch / 384 Kbps
Аудио 2: Английский / DTS / 48 KHz / 5.1 ch / 1510 Kbps

MediaInfo

General
Complete name : D:\3D Документальные передачи\Букашки (2003).mkv
Format : Matroska
File size : 8.81 GiB
Duration : 40mn 3s
Overall bit rate : 31.5 Mbps
Encoded date : UTC 2012-02-24 19:12:56
Writing application : mkvmerge v3.4.0 ('Rapunzel') сборка от May 15 2010 09:38:20
Writing library : libebml v0.8.0 + libmatroska v0.9.0
Video
ID : 1
Format : AVC
Format/Info : Advanced Video Codec
Format profile : High@L5.0
Format settings, CABAC : Yes
Format settings, ReFrames : 5 frames
Muxing mode : Container profile=Unknown@5.0
Codec ID : V_MPEG4/ISO/AVC
Duration : 40mn 3s
Bit rate : 29.0 Mbps
Width : 1 920 pixels
Height : 2 160 pixels
Display aspect ratio : 0.889
Frame rate : 23.976 fps
Color space : YUV
Chroma subsampling : 4:2:0
Bit depth : 8 bits
Scan type : Progressive
Bits/(Pixel*Frame) : 0.291
Stream size : 8.11 GiB (92%)
Writing library : x264 core 119 r2106 07efeb4
Encoding settings : cabac=1 / ref=5 / deblock=1:-3:-3 / analyse=0x3:0x113 / me=umh / subme=9 / psy=1 / psy_rd=1.00:0.15 / mixed_ref=1 / me_range=16 / chroma_me=1 / trellis=2 / 8x8dct=1 / cqm=0 / deadzone=21,11 / fast_pskip=1 / chroma_qp_offset=-3 / threads=6 / sliced_threads=0 / nr=0 / decimate=1 / interlaced=0 / bluray_compat=0 / constrained_intra=0 / bframes=4 / b_pyramid=2 / b_adapt=2 / b_bias=0 / direct=3 / weightb=1 / open_gop=0 / weightp=2 / keyint=250 / keyint_min=23 / scenecut=40 / intra_refresh=0 / rc_lookahead=40 / rc=crf / mbtree=1 / crf=18.0 / qcomp=0.60 / qpmin=10 / qpmax=69 / qpstep=4 / vbv_maxrate=40000 / vbv_bufsize=40000 / crf_max=0.0 / nal_hrd=none / ip_ratio=1.40 / aq=1:1.00
Audio #1
ID : 2
Format : AC-3
Format/Info : Audio Coding 3
Mode extension : CM (complete main)
Codec ID : A_AC3
Duration : 40mn 3s
Bit rate mode : Constant
Bit rate : 384 Kbps
Channel(s) : 6 channels
Channel positions : Front: L C R, Side: L R, LFE
Sampling rate : 48.0 KHz
Bit depth : 16 bits
Stream size : 110 MiB (1%)
Language : Russian
Audio #2
ID : 3
Format : DTS
Format/Info : Digital Theater Systems
Codec ID : A_DTS
Duration : 40mn 3s
Bit rate mode : Constant
Bit rate : 1 510 Kbps
Channel(s) : 6 channels
Channel positions : Front: L C R, Side: L R, LFE
Sampling rate : 48.0 KHz
Bit depth : 16 bits
Stream size : 433 MiB (5%)
Language : English

Скриншоты

Остальные раздачи этого фильма (4)
Благодарности релизеру (3)

Торрент:

Статус:

Размер:

Зарегистрирован   [ 2012-03-12 16:25 ]

* не проверено

8.81 GB

 
 Мнение о фильме (21)

1, 2  След.






Спасибо из Алматы, позновательный фильм, особенно для детей и картинка и глубина, а цветопередача вообще зелень зумительная. с п а с и б о
 

вот чего сильно охота увидеть в объёме, так это
год выхода вроде 2012-й... а нигде нету(((
 

Перевод нормальный, но читает текст актер с немного гнусавым голосом, это немного раздражает.
В целоми снято хорошо.
Иногда проскакивают незначительные артефакты в виде двоения, но передний план четкий.
Есть вылеты.
Фильм понравился.
Достоен к периодическому пересмотру долгими унылыми холодными вечерами.
 

нормальный поучительный фильм
 

Фильм просто изумительный
 

Всем доброго времени суток! Сразу скажу, что 9 из 10 баллов по визуальности и содержанию фильма - заслуженные. Почему не поставил 10? Отвечу честно - пока только один фильм из тех, что видел за последние три года, удовлетворил моему реалистичному восприятию 3D как в кино, так и на ЖК-панели с затворными очками. В нашем городе перед премьерным показом "Аватара" закрывали кинотеатр на реконструкцию специально за две недели до начала проката, чтобы зрители комфортно воспринимали новый формат на новейшем оборудовании и в уютном зале. Для меня в августе 2009 года был фурор души. "Букашки" дали ощущение, очень близкое к августовскому, но всё же... чуть-чуть не дотянулось до пика... Автору раздачи преогромная благодарность за его нелёгкий труд, и не его вина в таких моментах - выше своей головы не прыгнешь))) Не мог отписаться кратко, ибо каждая раздача - это сладкий островок удачи во времени жизни, ради которого стоит жить и радоваться! Прекрасный треккер и талантливые релизёры!!!
Сейчас мои любимые цвета - зелёный и синий
 

Фильм прекрасный,для семейного просмотра самое то.Плюс еще и познавательный.Смотрите не пожалеете.Спасибо за раздачу.
 

Фильм просто изумительный!
 

SUPER
 

Отличный, познавательный фильм. Сам посмотрел с удовольствием, а уж у детей будет полный восторг. Спасибо за раздачу.
 

СПАСИБО
 

Какой красивый фильм, а букашки какие милые! А мы эту тлю с роз - химией... Что поделать...?
Какие удивительные съемки! Спасибо за возможность посмотреть фильм в 3 Д.
 

фильм класс!! Спасибо.
 

Смотрели всей семьёй-понравилось очень!!!
 

Реально, полноценный 3Д фильм. Глаза в кучу не собираются! Лучшее, что видел. (из скачанного)
 

СПАСИБО,фильм класс
 

Супер!
 

Крутая хрень , даже понравилась.
 

lizard76 этот фильм,обложку которого вы выложили-Приключения в долине муравьев 2013 года, он позже должен появится,я думаю. Сейчас идет на кинорейсах по нтв+
 

Класный фильм.Спасибо)))
 

Страница 1 из 2

1, 2  След.