Торренты   
 
 

 

Пещера забытых снов в 3Д / Cave of Forgotten Dreams 3D (Вернер Херцог / Werner Herzog) [2010, BDrip, 1080p, Full OverUnder]

Рейтинг 3D:
1 голосов
9.0
Рейтинг фильма:
1 голосов
9.0
 
Вы должны быть авторизированы,
чтобы ставить оценки


Пещера забытых снов / Cave of Forgotten Dreams

Год выпуска: 2010
Страна: США, Германия, Канада, Франция, Великобритания
Жанр: документальный, история
Продолжительность: 01:30:08
Перевод: Профессиональный (многоголосый закадровый)
Русские субтитры: нет
Режиссер на русском: Вернер Херцог
Режиссер на английском: Werner Herzog
В ролях: Вернер Херцог, Dominique Baffier, Jean Clottes, Жан-Мишель Женест, Кэрол Фриц, Gilles Tosello, Мишель Филипп, Жюльен Монни, Николас Конрад, Вульф Хейн
Описание: Пещера Шове на юге Франции закрыта для доступа общественности, поскольку более 300 рисунков с изображениями животных в ней являются древнейшими образцами пещерного искусства в мире и любое заметное изменение влажности воздуха в пещере может привести к их повреждению. Право доступа, лишь на несколько часов и с соблюдением ограничений, есть у немногих археологов. И только четыре члена съёмочной группы получили специальное разрешение от министра культуры Франции для съёмок этого фильма.
На встроенных ТВ-плейерах работать не будет!!!
Качество: BDrip
Контейнер: MKV
Формат 3D: OverUnder / Вертикальная стереопара
Порядок ракурсов: левый ракурс первый
Видео кодек: x264
Аудио кодек: DTS
Видео: AVC / 1920х2160 / 23,976 кадр/сек / 25,5 Мбит/сек
Аудио: Русский / DTS / 48 KHz / 5.1 ch / 1510 Kbps

MediaInfo

General
Complete name : D:\3D Документальные передачи\Пещера забытых снов (2010).mkv
Format : Matroska
File size : 17.4 GiB
Duration : 1h 30mn
Overall bit rate : 27.6 Mbps
Encoded date : UTC 2012-02-28 19:58:19
Writing application : mkvmerge v3.4.0 ('Rapunzel') сборка от May 15 2010 09:38:20
Writing library : libebml v0.8.0 + libmatroska v0.9.0
Video
ID : 1
Format : AVC
Format/Info : Advanced Video Codec
Format profile : High@L5.0
Format settings, CABAC : Yes
Format settings, ReFrames : 5 frames
Format settings, GOP : N=1
Muxing mode : Container profile=Unknown@5.0
Codec ID : V_MPEG4/ISO/AVC
Duration : 1h 30mn
Bit rate : 25.5 Mbps
Width : 1 920 pixels
Height : 2 160 pixels
Display aspect ratio : 0.889
Frame rate : 23.976 fps
Color space : YUV
Chroma subsampling : 4:2:0
Bit depth : 8 bits
Scan type : Progressive
Bits/(Pixel*Frame) : 0.257
Stream size : 16.1 GiB (93%)
Writing library : x264 core 119 r2106 07efeb4
Encoding settings : cabac=1 / ref=5 / deblock=1:-3:-3 / analyse=0x3:0x113 / me=umh / subme=9 / psy=1 / psy_rd=1.00:0.15 / mixed_ref=1 / me_range=16 / chroma_me=1 / trellis=2 / 8x8dct=1 / cqm=0 / deadzone=21,11 / fast_pskip=1 / chroma_qp_offset=-3 / threads=6 / sliced_threads=0 / nr=0 / decimate=1 / interlaced=0 / bluray_compat=0 / constrained_intra=0 / bframes=4 / b_pyramid=2 / b_adapt=2 / b_bias=0 / direct=3 / weightb=1 / open_gop=0 / weightp=2 / keyint=250 / keyint_min=23 / scenecut=40 / intra_refresh=0 / rc_lookahead=40 / rc=crf / mbtree=1 / crf=18.0 / qcomp=0.60 / qpmin=10 / qpmax=69 / qpstep=4 / vbv_maxrate=40000 / vbv_bufsize=40000 / crf_max=0.0 / nal_hrd=none / ip_ratio=1.40 / aq=1:1.00
Audio
ID : 2
Format : DTS
Format/Info : Digital Theater Systems
Codec ID : A_DTS
Duration : 1h 30mn
Bit rate mode : Constant
Bit rate : 1 510 Kbps
Channel(s) : 6 channels
Channel positions : Front: L C R, Side: L R, LFE
Sampling rate : 48.0 KHz
Bit depth : 16 bits
Stream size : 973 MiB (5%)

Скриншоты

Благодарности релизеру (3)

Торрент:

Статус:

Размер:

Зарегистрирован   [ 2012-03-12 16:31 ]

проверено

17.37 GB