Торренты   
 
 


Глаз ребенка в 3Д / Child's Eye 3D (Оксид Пан / Oxide Pang Chun) [2010, BDrip, 1080p, Full OverUnder]

Рейтинг 3D:
4 голосов
5.5
Рейтинг фильма:
5 голосов
4.1
 
Вы должны быть авторизированы,
чтобы ставить оценки


Глаз ребенка / Child's Eye

Год выпуска: 2010
Страна: Гонконг
Студия: Digital Magic / Universe Entertainment
Жанр: ужасы
Продолжительность: 01:37:02
Перевод: Профессиональный (дублированный)
Русские субтитры: есть
Режиссер на русском: Оксид Пан
Режиссер на английском: Oxide Pang Chun
В ролях: Шон Юе, Ка Танг Лам, Лоуренс Чоу, Джо Кук, Эленн Квонг, Рэйни Ян
Описание: Группа путешественников из Гонконга в составе 6 человек оказывается запертой в аэропорту Бангкока во время антиправительственного протеста в ноябре 2008-го года. Трое из группы исчезают таинственным и необъяснимым образом, а остальным предстоит столкнуться со сверхъестественными силами.
На встроенных ТВ-плейерах работать не будет!!!
Качество: BDrip (за предоставленный исходник большое спасибо TopGun'у)
Контейнер: MKV
Формат 3D: OverUnder / Вертикальная стереопара
Порядок ракурсов: левый ракурс первый
Видео кодек: x264
Аудио кодек: AC3, DTS
Видео: AVC / 1920х2160 / 23,976 кадр/сек / 15,2 Мбит/сек
Аудио 1: Русский / AC3 / 48 KHz / 5.1 ch / 448 Kbps
Аудио 2: Китайский / DTS / 48 KHz / 5.1 ch / 755 Kbps
Субтитры srt: Русские полные, Английские полные

MediaInfo

General
Complete name : D:\3D Кинофильмы\Глаз ребенка (2010).mkv
Format : Matroska
File size : 11.3 GiB
Duration : 1h 37mn
Overall bit rate : 16.7 Mbps
Movie name : --SCHUMAHER--
Encoded date : UTC 2012-03-12 10:37:19
Writing application : mkvmerge v3.4.0 ('Rapunzel') сборка от May 15 2010 09:38:20
Writing library : libebml v0.8.0 + libmatroska v0.9.0
Video
ID : 1
Format : AVC
Format/Info : Advanced Video Codec
Format profile : High@L5.0
Format settings, CABAC : Yes
Format settings, ReFrames : 5 frames
Muxing mode : Container profile=Unknown@5.0
Codec ID : V_MPEG4/ISO/AVC
Duration : 1h 37mn
Bit rate : 15.2 Mbps
Width : 1 920 pixels
Height : 2 160 pixels
Display aspect ratio : 0.889
Frame rate : 23.976 fps
Color space : YUV
Chroma subsampling : 4:2:0
Bit depth : 8 bits
Scan type : Progressive
Bits/(Pixel*Frame) : 0.153
Stream size : 10.3 GiB (91%)
Writing library : x264 core 119 r2106 07efeb4
Encoding settings : cabac=1 / ref=5 / deblock=1:-3:-3 / analyse=0x3:0x113 / me=umh / subme=9 / psy=1 / psy_rd=1.00:0.15 / mixed_ref=1 / me_range=16 / chroma_me=1 / trellis=2 / 8x8dct=1 / cqm=0 / deadzone=21,11 / fast_pskip=1 / chroma_qp_offset=-3 / threads=6 / sliced_threads=0 / nr=0 / decimate=1 / interlaced=0 / bluray_compat=0 / constrained_intra=0 / bframes=4 / b_pyramid=2 / b_adapt=2 / b_bias=0 / direct=3 / weightb=1 / open_gop=0 / weightp=2 / keyint=250 / keyint_min=23 / scenecut=40 / intra_refresh=0 / rc_lookahead=40 / rc=crf / mbtree=1 / crf=18.0 / qcomp=0.60 / qpmin=10 / qpmax=69 / qpstep=4 / vbv_maxrate=40000 / vbv_bufsize=40000 / crf_max=0.0 / nal_hrd=none / ip_ratio=1.40 / aq=1:1.00
Audio #1
ID : 2
Format : AC-3
Format/Info : Audio Coding 3
Mode extension : CM (complete main)
Codec ID : A_AC3
Duration : 1h 37mn
Bit rate mode : Constant
Bit rate : 448 Kbps
Channel(s) : 6 channels
Channel positions : Front: L C R, Side: L R, LFE
Sampling rate : 48.0 KHz
Bit depth : 16 bits
Stream size : 311 MiB (3%)
Language : Russian
Audio #2
ID : 3
Format : DTS
Format/Info : Digital Theater Systems
Codec ID : A_DTS
Duration : 1h 37mn
Bit rate mode : Constant
Bit rate : 755 Kbps
Channel(s) : 6 channels
Channel positions : Front: L C R, Side: L R, LFE
Sampling rate : 48.0 KHz
Bit depth : 24 bits
Video delay : 11ms
Stream size : 524 MiB (5%)
Language : Chinese
Text #1
ID : 4
Format : UTF-8
Codec ID : S_TEXT/UTF8
Codec ID/Info : UTF-8 Plain Text
Language : Russian
Text #2
ID : 5
Format : UTF-8
Codec ID : S_TEXT/UTF8
Codec ID/Info : UTF-8 Plain Text
Language : English
Menu
00:00:00.000 : :01
00:07:32.118 : :02
00:14:02.425 : :03
00:22:47.866 : :04
00:27:54.673 : :05
00:35:17.282 : :06
00:47:05.072 : :07
00:53:11.814 : :08
00:57:42.584 : :09
01:07:29.504 : :10
01:14:04.357 : :11
01:23:09.860 : :12

Скриншоты

Благодарности релизеру (0)

Торрент:

Статус:

Размер:

Зарегистрирован   [ 2012-03-12 16:37 ]

проверено

11.35 GB