Торренты   
 
 

 

Монстры против пришельцев в 3Д / Monsters vs Aliens 3D (Роб Леттерман, Конрад Вернон / Rob Letterman, Conrad Vernon) [2009, фантастическая комедия,BDrip 720p] OverUnder / Вертикальная стереопара

Рейтинг 3D:
50 голосов
8.7
Рейтинг фильма:
49 голосов
8.4
 
Вы должны быть авторизированы,
чтобы ставить оценки


Монстры против пришельцев в 3Д / Monsters vs Aliens 3D
Год выпуска: 2009
Страна: США
Жанр: фантастическая комедия
Продолжительность: 01:34:19
Перевод: Профессиональный дубляж
Русские субтитры: есть
Производство: DreamWorks Animation
Режиссер: Роб Леттерман /Rob Letterman/ («Подводная братва»), Конрад Вернон /Conrad Vernon/ («Шрек 2»)
Описание:
В Сюзан Мёрфи, девушку из Калифорнии, прямо в день ее свадьбы попадает метеорит, полный всякой дряни из космоса, в результате чего она вдруг начинает расти и вырастает до пятнадцати метров. Встревоженные появлением нового монстра, военные сразу берутся за дело: Сюзан отлавливают и увозят на секретную правительственную базу.
Там её переименовывают в Гигантику и запирают вместе с другими монстрами: гениальным, но насекомоголовым доктором наук Тараканом; брутальным рыбочеловеком по кличке Недостающее Звено; желеподобным и неубиваемым Б. О. Бом и стометровым Насекомозавром. Правда, их тюремное заключение длится недолго: на Землю нападает инопланетный робот, и отчаявшийся Президент, поддавшись уговорам генерала Воякера, отправляет разношерстную команду монстров на спасение планеты от неминуемой гибели.
Дополнительная информация:
Пережато без промежуточных этапов напрямую с БД с упором на качество.
Тормозить не должно ни у кого, т.к. сделано в рамках формата DXVA одним файлом
Качество: BDrip
Формат: MKV
Формат 3D: OverUnder / Вертикальная стереопара
Видео кодек: x264
Аудио кодек: AC3
Видео: MPEG4 Video (H264) 1280x1088 23.98fps ~5 mbps CRF18
Аудио (RUS): DD 5.1, 48 kHz, 640 kbps
Аудио (ENG): DD 5.1, 48 kHz, 640 kbps

mi

Format : Matroska
File size : 4.27 GiB
Duration : 1h 34mn
Overall bit rate : 6 469 Kbps
Encoded date : UTC 2010-06-17 23:52:04
Writing application : mkvmerge v4.0.0 ('The Stars were mine') сборка от Jun 6 2010 16:18:42
Writing library : libebml v1.0.0 + libmatroska v1.0.0
Video
ID : 1
Format : AVC
Format/Info : Advanced Video Codec
Format profile : High@L4.1
Format settings, CABAC : Yes
Format settings, ReFrames : 4 frames
Muxing mode : Container profile=Unknown@4.1
Codec ID : V_MPEG4/ISO/AVC
Duration : 1h 34mn
Bit rate : 5 060 Kbps
Width : 1 280 pixels
Height : 1 088 pixels
Display aspect ratio : 1.176
Frame rate : 23.976 fps
Resolution : 8 bits
Colorimetry : 4:2:0
Scan type : Progressive
Bits/(Pixel*Frame) : 0.152
Stream size : 3.34 GiB (78%)
Writing library : x264 core 98 r1643 59a9e03
Encoding settings : cabac=1 / ref=4 / deblock=1:-1:-1 / analyse=0x3:0x133 / me=umh / subme=7 / psy=1 / psy_rd=1.00:0.00 / mixed_ref=1 / me_range=16 / chroma_me=1 / trellis=2 / 8x8dct=1 / cqm=0 / deadzone=21,11 / fast_pskip=1 / chroma_qp_offset=-2 / threads=6 / sliced_threads=0 / nr=0 / decimate=1 / interlaced=0 / constrained_intra=0 / bframes=8 / b_pyramid=0 / b_adapt=2 / b_bias=0 / direct=3 / weightb=1 / weightp=2 / keyint=250 / keyint_min=25 / scenecut=40 / intra_refresh=0 / rc_lookahead=40 / rc=crf / mbtree=1 / crf=18.0 / qcomp=0.60 / qpmin=10 / qpmax=51 / qpstep=4 / vbv_maxrate=50000 / vbv_bufsize=50000 / crf_max=0.0 / ip_ratio=1.40 / aq=2:1.00 / nal_hrd=none
Audio #1
ID : 2
Format : AC-3
Format/Info : Audio Coding 3
Format_Settings_ModeExtension : CM (complete main)
Codec ID : A_AC3
Duration : 1h 34mn
Bit rate mode : Constant
Bit rate : 640 Kbps
Channel(s) : 6 channels
Channel positions : Front: L C R, Side: L R, LFE
Sampling rate : 48.0 KHz
Stream size : 433 MiB (10%)
Language : Russian
Audio #2
ID : 3
Format : AC-3
Format/Info : Audio Coding 3
Format_Settings_ModeExtension : CM (complete main)
Codec ID : A_AC3
Duration : 1h 34mn
Bit rate mode : Constant
Bit rate : 640 Kbps
Channel(s) : 6 channels
Channel positions : Front: L C R, Side: L R, LFE
Sampling rate : 48.0 KHz
Stream size : 433 MiB (10%)
Text #1
ID : 4
Format : UTF-8
Codec ID : S_TEXT/UTF8
Codec ID/Info : UTF-8 Plain Text
Language : Russian
Text #2
ID : 5
Format : UTF-8
Codec ID : S_TEXT/UTF8
Codec ID/Info : UTF-8 Plain Text

Скриншоты:

Остальные раздачи этого фильма (7)
Благодарности релизеру (2)

Торрент:

Статус:

Размер:

Зарегистрирован   [ 2010-06-18 04:23 ]

проверено

4.27 GB

 
 Мнение о фильме (9)





Мульт так себе , для детишек . Но 3Д очень прикольное ... Смотрел правда BD3D на LG LM55660S. Вылезания и вылеты из экрана очень эффектные..
 

3д очень прикольное.
 
Виталий Цыганов Профиль 16-Апр-2013 20:54

Мульт классный, юмор не тупой, очень смешно. Правда в конце немного скушновато. Но почти весь мульт - интересно и смешно!
 

В сюжет не вникал,дети смотрели,но эффекты и звук просто супер!Смотрел на Philips 37PFL6007k. Спасибо!
 

дети довольны смотрели на lg47lm640t
 

хороший мультик, 3d тоже на высоте
 

Отличный мультфильм с оригинальным юмором и переводом 3D эффекты на высоте.
 

Мультик хороший. Но для "семейного просмотра" я бы посоветовал какой-нибудь другой мультфильм... А для детей - отлично.
 

классный фильм. спасибо за раздачу.