Торренты   
 
 


Переходы 3Д / Transitions 3D [1986, BDrip, half720p@60, Anamorph OverUnder]

Рейтинг 3D:
Пока никто не голосовал
Рейтинг фильма:
Пока никто не голосовал
 
Вы должны быть авторизированы,
чтобы ставить оценки


Переходы 3ДTransitions 3D
Год выпуска: 1986
Страна: Канада (IMAX)
Жанр: Документальный, Познавательный
Продолжительность: 00:29:17
Перевод: Отсутствует
Режиссер: Colin Low, Tony Ianzelo
Описание: "Это был первый IMAX ® 3D фильм в мире, использующий впечатляющую 3D-технологию, разработанную Национальным советом по кинематографии Канады в сотрудничестве с IMAX ® Corporation. Подготовленный для канадского павильона на ЭКСПО-86 в Ванкувере, фильм "Переходы" теперь известен как родоначальник трехмерных развлечений, какими мы их знаем."
В фильме показаны 3Д демо-ролики IMAX тех лет. Продолжительность ~21 минута.
Бонусом присоединён 2д фильм о съёмке "Transitions" (~8 минут). В нём показаны и камеры IMAX, и как снимали эти ролики.
Доп. информация: Реальное разрешение в фильме явно не выше SD, и качество низкое (смотрите скриншоты или сэмпл). Соотношение сторон полезного изображения 4:3, потому по бокам чёрные полосы.
Наверняка некоторым будет интересно посмотреть с чего начинал IMAX, хотя по нынешним временам ролики смотрятся весьма наивненько. В фильме о фильме перевод бы не помешал.--Проверено на встроенном плейере ТВ Samsung UE-C7000 --Формат 3d: Anamorph OverUnder
Качество: BDrip
Контейнер: MKV
Видео: AVC / 1280х720p / 59.940 fps / 7169 Kbps
Аудио: Английский / AC3 / 48 KHz / 2 ch / 448 Kbps

MediaInfo

General
UniqueID : 205272185825763665964649574157273455185 (0x9A6DFC253C3E1D3DB7E1390188BEDA51)
Complete name : F:\Downloads\Transitions(3D)1986.halfOU.720p@60(ash61).mkv
Format : Matroska
File size : 1.59 GiB
Duration : 29mn 17s
Overall bit rate : 7 772 Kbps
Movie name : Transitions (3D) 1986 (ash61)
Encoded date : UTC 2012-03-15 16:18:34
Writing application : mkvmerge v3.4.0 ('Rapunzel') сборка от May 15 2010 09:38:20
Writing library : libebml v0.8.0 + libmatroska v0.9.0
Video
ID : 1
Format : AVC
Format/Info : Advanced Video Codec
Format profile : High@L4.1
Format settings, CABAC : Yes
Format settings, ReFrames : 4 frames
Codec ID : V_MPEG4/ISO/AVC
Duration : 29mn 17s
Bit rate : 7 169 Kbps
Width : 1 280 pixels
Height : 720 pixels
Display aspect ratio : 16:9
Frame rate : 59.940 fps
Color space : YUV
Chroma subsampling : 4:2:0
Bit depth : 8 bits
Scan type : Progressive
Bits/(Pixel*Frame) : 0.130
Stream size : 1.47 GiB (92%)
Title : BDrip by ash61
Writing library : x264 core 119 r2106 07efeb4
Encoding settings : cabac=1 / ref=4 / deblock=1:-3:-3 / analyse=0x3:0x113 / me=umh / subme=9 / psy=1 / psy_rd=1.00:0.15 / mixed_ref=1 / me_range=16 / chroma_me=1 / trellis=2 / 8x8dct=1 / cqm=0 / deadzone=21,11 / fast_pskip=1 / chroma_qp_offset=-3 / threads=3 / sliced_threads=0 / nr=0 / decimate=1 / interlaced=0 / bluray_compat=0 / constrained_intra=0 / bframes=6 / b_pyramid=2 / b_adapt=2 / b_bias=0 / direct=3 / weightb=1 / open_gop=0 / weightp=2 / keyint=250 / keyint_min=25 / scenecut=40 / intra_refresh=0 / rc_lookahead=60 / rc=crf / mbtree=1 / crf=18.0 / qcomp=0.70 / qpmin=0 / qpmax=69 / qpstep=4 / vbv_maxrate=40000 / vbv_bufsize=40000 / crf_max=0.0 / nal_hrd=none / ip_ratio=1.40 / aq=1:0.70
Audio
ID : 2
Format : AC-3
Format/Info : Audio Coding 3
Mode extension : CM (complete main)
Codec ID : A_AC3
Duration : 29mn 17s
Bit rate mode : Constant
Bit rate : 448 Kbps
Channel(s) : 2 channels
Channel positions : Front: L R
Sampling rate : 48.0 KHz
Bit depth : 16 bits
Compression mode : Lossy
Stream size : 93.9 MiB (6%)
Language : English

Скриншоты

Благодарности релизеру (4)

Торрент:

Статус:

Размер:

Зарегистрирован   [ 2012-03-16 01:46 ]

проверено

1.59 GB