Торренты   
 
 

 

Цирк! Цирк! Цирк! / Orla Frosnapper (Питер Додд / Peter Dodd) [2011 г.,BDrip 1080p, Full OverUnder]

Рейтинг 3D:
1 голосов
7.0
Рейтинг фильма:
1 голосов
7.0
 
Вы должны быть авторизированы,
чтобы ставить оценки


Цирк! Цирк! Цирк! / Orla Frosnapper
Год выпуска: 2011
Страна: Дания
Жанр: мультфильм, семейный
Продолжительность: 01:24:35
Перевод: Профессиональный (полное дублирование)--Режиссер: Питер Додд / Peter Dodd--В ролях: Николай Ли Каас, Туре Линдхардт, Николай Коперникус, Катрин Фалькенберг, Маргете Койту, Оле Теструп, Дэвид Бэйтсон, Cecilie Stenspil, Ларс Тиесгаард, Лассе Лундерсков...--Описание: В маленький город, в котором живет Виктор и его пес Хрящик, приезжает цирк. Директор цирка предлагает всем желающим выступить со своей программой, и все жители города начинают готовиться. Готовятся и Виктор с Хрящиком. Местный хулиган Фредди, по прозвищу Лягушка, обеспокоен происходящим: раньше в центре внимания города был он и его проказы, а теперь никто не обращает на него никакого внимания! Фредди решает похитить Хрящика и сам выступить на арене. Виктору и его друзьям, Якобу и Клэр, предстоят настоящие приключения!--Качество: BDrip
Контейнер: MKV
Формат 3D: OverUnder / Вертикальная стереопара (Левый ракурс верхний)
Видео кодек: x264
Видео: AVC, 1920x2080, 23.976 кадр/сек, 9611 Kbps
Аудио 1: русский; AC3, 6 каналов, 384 Кбит/сек, 48,0 КГц (DUB)
Аудио 2: датский; AC3, 6 каналов, 640 Kbps, 48,0 КГц--

MediaInfo:

Код:
General
Unique ID                        : 251904841176524862111543927694277789934 (0xBD831B90A41EFBEC9FC66A55A808C8EE)
Complete name                    : L:\_3D\3D-Multiki\OrlaFrosnapper(3d).FullOU.mkv
Format                           : Matroska
File size                        : 6.41 GiB
Duration                         : 1h 24mn
Overall bit rate                 : 10.9 Mbps
Encoded date                     : UTC 2012-03-15 23:44:42
Writing application              : mkvmerge v4.0.0 ('The Stars were mine') сборка от Jun  6 2010 16:18:42
Writing library                  : libebml v1.0.0 + libmatroska v1.0.0
Video
ID                               : 1
Format                           : AVC
Format/Info                      : Advanced Video Codec
Format profile                   : High@L5.0
Format settings, CABAC           : Yes
Format settings, ReFrames        : 5 frames
Codec ID                         : V_MPEG4/ISO/AVC
Duration                         : 1h 24mn
Bit rate                         : 9 611 Kbps
Width                            : 1 920 pixels
Height                           : 2 080 pixels
Display aspect ratio             : 0.923
Frame rate                       : 23.976 fps
Color space                      : YUV
Chroma subsampling               : 4:2:0
Bit depth                        : 8 bits
Scan type                        : Progressive
Bits/(Pixel*Frame)               : 0.100
Stream size                      : 5.68 GiB (89%)
Writing library                  : x264 core 116 r2074 2641b9e
Encoding settings                : cabac=1 / ref=5 / deblock=1:-3:-3 / analyse=0x3:0x113 / me=umh / subme=9 / psy=1 / psy_rd=1.00:0.15 / mixed_ref=1 / me_range=16 / chroma_me=1 / trellis=2 / 8x8dct=1 / cqm=0 / deadzone=21,11 / fast_pskip=1 / chroma_qp_offset=-3 / threads=6 / sliced_threads=0 / nr=0 / decimate=1 / interlaced=0 / bluray_compat=0 / constrained_intra=0 / bframes=6 / b_pyramid=2 / b_adapt=2 / b_bias=0 / direct=3 / weightb=1 / open_gop=0 / weightp=2 / keyint=250 / keyint_min=23 / scenecut=40 / intra_refresh=0 / rc_lookahead=60 / rc=crf / mbtree=1 / crf=18.0 / qcomp=0.60 / qpmin=0 / qpmax=69 / qpstep=4 / vbv_maxrate=50000 / vbv_bufsize=50000 / crf_max=0.0 / nal_hrd=none / ip_ratio=1.40 / aq=1:0.70
Language                         : Danish
Audio #1
ID                               : 2
Format                           : AC-3
Format/Info                      : Audio Coding 3
Mode extension                   : CM (complete main)
Codec ID                         : A_AC3
Duration                         : 1h 24mn
Bit rate mode                    : Constant
Bit rate                         : 384 Kbps
Channel(s)                       : 2 channels
Channel positions                : Front: L R
Sampling rate                    : 48.0 KHz
Bit depth                        : 16 bits
Compression mode                 : Lossy
Stream size                      : 232 MiB (4%)
Language                         : Russian
Audio #2
ID                               : 3
Format                           : AC-3
Format/Info                      : Audio Coding 3
Mode extension                   : CM (complete main)
Codec ID                         : A_AC3
Duration                         : 1h 24mn
Bit rate mode                    : Constant
Bit rate                         : 640 Kbps
Channel(s)                       : 6 channels
Channel positions                : Front: L C R, Side: L R, LFE
Sampling rate                    : 48.0 KHz
Bit depth                        : 16 bits
Compression mode                 : Lossy
Stream size                      : 387 MiB (6%)
Language                         : Danish

Скриншоты



Остальные раздачи этого фильма (3)
Благодарности релизеру (0)

Торрент:

Статус:

Размер:

Зарегистрирован   [ 2012-03-16 04:15 ]

проверено

6.41 GB