Торренты   
 
 

 

Цирк! Цирк! Цирк! / Orla Frosnapper (Питер Додд / Peter Dodd) [2011 г., Anamorph OverUnder]

Рейтинг 3D:
1 голосов
7.0
Рейтинг фильма:
1 голосов
7.0
 
Вы должны быть авторизированы,
чтобы ставить оценки


Цирк! Цирк! Цирк! 3D / Orla Frosnapper 3D
Год выпуска: 2011
Страна: Дания
Жанр: мультфильм, семейный
Продолжительность: 01:24:31
Перевод: Профессиональный (полное дублирование)
Режиссер: Питер Додд / Peter Dodd
В ролях:
Николай Ли Каас, Туре Линдхардт, Николай Коперникус,
Катрин Фалькенберг, Маргете Койту, Оле Теструп, Дэвид Бэйтсон,
Cecilie Stenspil, Ларс Тиесгаард, Лассе Лундерсков...
Описание:
В маленький город, в котором живет Виктор и его пес Хрящик, приезжает цирк. Директор цирка предлагает всем желающим выступить со своей программой, и все жители города начинают готовиться. Готовятся и Виктор с Хрящиком. Местный хулиган Фредди, по прозвищу Лягушка, обеспокоен происходящим: раньше в центре внимания города был он и его проказы, а теперь никто не обращает на него никакого внимания! Фредди решает похитить Хрящика и сам выступить на арене. Виктору и его друзьям, Якобу и Клэр, предстоят настоящие приключения!--

--Формат 3d: Anamorph OverUnder
Качество: BDrip
Контейнер: MKV
Формат 3D: Half OverUnder / Вертикальная анаморфная стереопара
Порядок ракурсов: левый ракурс первый
Видео кодек: x264
Аудио кодек: AC3
Видео: Видео: AVC / 1920х1080p / 23.976 fps / 5,5 Mbps
Аудио 1: Русский / AC3 / 48.0 KHz / 5.1 ch /384 Kbps
Аудио 2:Датский / AC3 / 48.0 KHz / 5.1ch /640 Kbps

MediaInfo

Общее
Уникальный идентификатор : 242298412587990864076224790933154923977 (0xB648FA11678883B89A111DAE4B1D85C9)
Полное имя : E:\кино\Orla Frosnapper(3D)2011.halfOU.Lic(marik05).mkv
Формат : Matroska
Версия формата : Version 2
Размер файла : 3,94 Гбайт
Продолжительность : 1 ч. 24 м.
Общий поток : 6667 Кбит/сек
Название фильма : Orla Frosnapper(3D)2011(marik05)
Дата кодирования : UTC 2012-03-16 11:11:08
Программа кодирования : mkvmerge v3.4.0 ('Rapunzel') сборка от May 15 2010 09:38:20
Библиотека кодирования : libebml v0.8.0 + libmatroska v0.9.0
Видео
Идентификатор : 1
Формат : AVC
Формат/Информация : Advanced Video Codec
Профиль формата : High@L4.1
Параметр CABAC формата : Да
Параметр ReFrames формата : 4 кадра
Идентификатор кодека : V_MPEG4/ISO/AVC
Продолжительность : 1 ч. 24 м.
Битрейт : 5510 Кбит/сек
Ширина : 1920 пикселей
Высота : 1080 пикселей
Соотношение сторон : 16:9
Частота кадров : 23,976 кадра/сек
Цветовое пространство : YUV
Субдискретизация насыщенности : 4:2:0
Битовая глубина : 8 бит
Тип развёртки : Прогрессивная
Бит/(Пиксели*Кадры) : 0.111
Размер потока : 3,25 Гбайт (83%)
Библиотека кодирования : x264 core 120 r2164 da19765
Настройки программы : cabac=1 / ref=4 / deblock=1:-3:-3 / analyse=0x3:0x133 / me=umh / subme=9 / psy=1 / psy_rd=1.00:0.05 / mixed_ref=1 / me_range=16 / chroma_me=1 / trellis=2 / 8x8dct=1 / cqm=0 / deadzone=21,11 / fast_pskip=1 / chroma_qp_offset=-3 / threads=6 / sliced_threads=0 / nr=0 / decimate=1 / interlaced=0 / bluray_compat=0 / constrained_intra=0 / bframes=6 / b_pyramid=2 / b_adapt=2 / b_bias=0 / direct=3 / weightb=1 / open_gop=0 / weightp=2 / keyint=250 / keyint_min=23 / scenecut=40 / intra_refresh=0 / rc_lookahead=60 / rc=crf / mbtree=1 / crf=18.0 / qcomp=0.60 / qpmin=10 / qpmax=69 / qpstep=4 / vbv_maxrate=40000 / vbv_bufsize=40000 / crf_max=0.0 / nal_hrd=none / ip_ratio=1.40 / aq=1:0.80
Default : Да
Forced : Нет
Аудио #1
Идентификатор : 2
Формат : AC-3
Формат/Информация : Audio Coding 3
Расширение режима : CM (complete main)
Идентификатор кодека : A_AC3
Продолжительность : 1 ч. 24 м.
Вид битрейта : Постоянный
Битрейт : 384 Кбит/сек
Каналы : 2 канала
Расположение каналов : Front: L R
Частота : 48,0 КГц
Битовая глубина : 16 бит
Метод сжатия : С потерями
Размер потока : 232 Мбайт (6%)
Заголовок : дубляж
Язык : Russian
Default : Да
Forced : Нет
Аудио #2
Идентификатор : 3
Формат : AC-3
Формат/Информация : Audio Coding 3
Расширение режима : CM (complete main)
Идентификатор кодека : A_AC3
Продолжительность : 1 ч. 24 м.
Вид битрейта : Постоянный
Битрейт : 640 Кбит/сек
Каналы : 6 каналов
Расположение каналов : Front: L C R, Side: L R, LFE
Частота : 48,0 КГц
Битовая глубина : 16 бит
Метод сжатия : С потерями
Размер потока : 387 Мбайт (10%)
Заголовок : оригинал
Язык : Danish
Default : Нет
Forced : Нет
Меню
00:00:00.000 : :00:00:00.000
00:07:20.857 : :00:07:20.857
00:15:30.346 : :00:15:30.346
00:21:45.304 : :00:21:45.304
00:30:07.889 : :00:30:07.889
00:36:11.628 : :00:36:11.628
00:42:25.168 : :00:42:25.168
00:48:00.586 : :00:48:00.586
00:55:15.771 : :00:55:15.771
01:02:40.674 : :01:02:40.674
01:11:32.538 : :01:11:32.538
01:21:45.609 : :01:21:45.609

Скриншоты

Остальные раздачи этого фильма (3)
Благодарности релизеру (4)

Торрент:

Статус:

Размер:

Зарегистрирован   [ 2012-03-16 15:40 ]

проверено

3.94 GB