Торренты   
 
 

 

Дети шпионов 3: Игра окончена / Spy Kids 3-D: Game Over [2003, BDRip, half1080p, Anamorph OverUnder]

Рейтинг 3D:
3 голосов
8.0
Рейтинг фильма:
3 голосов
7.3
 
Вы должны быть авторизированы,
чтобы ставить оценки


Дети шпионов 3: Игра оконченаSpy Kids 3-D: Game Over
Год выпуска: 2003
Страна: США (Dimension Films, Troublemaker Studios)
Жанр: Фантастика, Приключения, Комедия, Семейный
Продолжительность: 01:24:22
Перевод: Профессиональный (дублированный)
Режиссер: Роберт Родригес / Robert RodriguezРоли исполняли (Дублировали):Джуни Кортез - Дэрил Сабара (Татьяна Весёлкина)
Кармен Кортез - Алекса Вега (Лина Иванова)
Дедушка - Рикардо Монтальбан (Василий Бочкарев)
Кибер Гений - Сильвестр Сталлоне (Владимир Антоник)
Франческа Гигглс - Сальма Хайек (Нина Тобилевич)
Доннагон Гигглс - Майк Джадж (Никита Прозоровский)
Гари Гигглс - Мэтью О’Лири (Андрей Бархударов)
Герти Гигглс - Эмили Осмент
Арнольд - Райан Пинкстон (Ольга Зубкова)
Рез - Роберт Вито (Михаил Тихонов)
Грегорио Кортез - Антонио Бандерас (Денис Беспалый)
Ингрид Кортез - Карла Гуджино (Лариса Некипелова)
Бабушка - Холланд Тейлор (Ольга Сирина)
Феликс Гамм - Чич Марин (Александр Груздев)
Мачете - Дэнни Трехо (Дальвин Щербаков)
Феган Флуп - Алан Камминг (Андрей Бархударов)
Александр Миньон - Тони Шэлуб (Дмитрий Филимонов)
Ромеро - Стив Бушеми (Вячеслав Баранов)
Динки Винкс - Билл Пэкстон (Алексей Колган)
Девлин - Джордж Клуни (Олег Куценко)
Парень - Элайджа Вуд (Александр Морозов)
.............................
Описание: Шпионы становятся старше, но и враги — все сильнее и изощреннее. Теперь им предстоит вступить в схватку с самим Сильвестром Сталлоне, чтобы спасти не только свои жизни, но и целый мир…
Несовершеннолетние агенты Джуни и Кармен Кортез отправляются на выполнение нового задания. На этот раз их ждет путешествие по виртуальному миру 3D видеоигры, разработанной для того, чтобы существа, населяющие ее явились в реальный мир.
Дочь шпионов Кармен попалась в сети компьютерной игры, созданной зловещим Мастером Игрушек. Теперь ее брат должен спасти сестру, а заодно и весь мир. И помогать ему в этом будут его родители!
Доп. информация: 3Д - глубокое. Примерно 00:01:58 - 00:11:32 идёт в 2Д - можно смотреть и без очков. Когда снимать и одевать очки - сообщается в фильме.
При просмотре отрывками заметил кратковременные 3Д-ляпы (смотрите под спойлером). Точно те же ляпы были и на старых DVD-анаглифах. Первый, второй и шестой ляпы - исправили (Samfednik).

Замеченные 3Д-ляпы на исходном BD

~ 01:10:38 - 01:10:44 - перепутаны ракурсы (6 сек) (исправлено);
~ 01:10:46 - 01:10:49 - перепутаны ракурсы (3 сек) (исправлено);
~ 01:11:01 - на правом роботе перспектива в обратную сторону, на левом - в правильную);
~ 01:11:48 - робот "парИт" над мостовой;
~ 01:14:56 - 01:14:59 - на основной картинке перспектива в обратную сторону, вылетающие винты и пружина - в правильной перспективе (3 сек);
~ 01:15:55 - 01:15:59 - временнОй рассинхрон ракурсов (4 сек) (исправлено).
Проверено на встроенном плейере ТВ Samsung UE-C7000 За исправление ляпов исходного BD большое спасибо Samfednik--Формат 3d: Anamorph OverUnder
Качество: BDrip
Контейнер: MKV
Видео: AVC / 1920х1080p / 23,976 fps / 14.1 Mbps
Аудио#1: Русский / AC3 / 48 KHz / 5.1 ch / 384 Kbps
Аудио#2: Английский / AC3 / 48 KHz / 5.1 ch / 640 Kbps

MediaInfo

General
UniqueID : 222689033979482822129415574298711061238 (0xA788590ED876984D905955D03D9872F6)
Complete name : F:\Downloads\SpyKids3-D.GameOver(3D)2003.halfOU(Ash61+Samfednik).mkv
Format : Matroska
File size : 9.11 GiB
Duration : 1h 24mn
Overall bit rate : 15.5 Mbps
Movie name : Spy Kids 3-D: Game Over (3D) 2003 (Ash61+Samfednik)
Encoded date : UTC 2012-03-22 12:06:03
Writing application : mkvmerge v3.4.0 ('Rapunzel') сборка от May 15 2010 09:38:20
Writing library : libebml v0.8.0 + libmatroska v0.9.0
Video
ID : 1
Format : AVC
Format/Info : Advanced Video Codec
Format profile : High@L4.1
Format settings, CABAC : Yes
Format settings, ReFrames : 4 frames
Codec ID : V_MPEG4/ISO/AVC
Duration : 1h 24mn
Bit rate : 14.1 Mbps
Width : 1 920 pixels
Height : 1 080 pixels
Display aspect ratio : 16:9
Frame rate : 23.976 fps
Color space : YUV
Chroma subsampling : 4:2:0
Bit depth : 8 bits
Scan type : Progressive
Bits/(Pixel*Frame) : 0.284
Stream size : 8.32 GiB (91%)
Title : BDrip by Ash61 + Samfednik
Writing library : x264 core 119 r2106 07efeb4
Encoding settings : cabac=1 / ref=4 / deblock=1:-3:-3 / analyse=0x3:0x113 / me=umh / subme=9 / psy=1 / psy_rd=1.00:0.15 / mixed_ref=1 / me_range=16 / chroma_me=1 / trellis=2 / 8x8dct=1 / cqm=0 / deadzone=21,11 / fast_pskip=1 / chroma_qp_offset=-3 / threads=3 / sliced_threads=0 / nr=0 / decimate=1 / interlaced=0 / bluray_compat=0 / constrained_intra=0 / bframes=6 / b_pyramid=2 / b_adapt=2 / b_bias=0 / direct=3 / weightb=1 / open_gop=0 / weightp=2 / keyint=250 / keyint_min=23 / scenecut=40 / intra_refresh=0 / rc_lookahead=60 / rc=crf / mbtree=1 / crf=17.5 / qcomp=0.70 / qpmin=0 / qpmax=69 / qpstep=4 / vbv_maxrate=40000 / vbv_bufsize=40000 / crf_max=0.0 / nal_hrd=none / ip_ratio=1.40 / aq=1:0.70
Audio #1
ID : 2
Format : AC-3
Format/Info : Audio Coding 3
Mode extension : CM (complete main)
Codec ID : A_AC3
Duration : 1h 24mn
Bit rate mode : Constant
Bit rate : 384 Kbps
Channel(s) : 6 channels
Channel positions : Front: L C R, Side: L R, LFE
Sampling rate : 48.0 KHz
Bit depth : 16 bits
Compression mode : Lossy
Video delay : 32ms
Stream size : 232 MiB (2%)
Title : Дубляж
Language : Russian
Audio #2
ID : 3
Format : AC-3
Format/Info : Audio Coding 3
Mode extension : CM (complete main)
Codec ID : A_AC3
Duration : 1h 24mn
Bit rate mode : Constant
Bit rate : 640 Kbps
Channel(s) : 6 channels
Channel positions : Front: L C R, Side: L R, LFE
Sampling rate : 48.0 KHz
Bit depth : 16 bits
Compression mode : Lossy
Stream size : 386 MiB (4%)
Title : Original
Language : English
Menu
00:00:00.000 : :1
00:08:27.465 : :2
00:14:12.894 : :3
00:21:09.685 : :4
00:28:46.475 : :5
00:36:28.103 : :6
00:42:52.195 : :7
00:50:45.292 : :8
00:57:06.048 : :9
01:03:57.000 : :10
01:09:57.944 : :11
01:17:11.752 : :12
22.03.2012 - Релиз обновлён. Исправлены 3 ляпа исходного БД (см. выше под спойлером "3Д-ляпы"). Желающие, скачайте заново торрент-файл.
Благодарности релизеру (9)

Торрент:

Статус:

Размер:

Зарегистрирован   [ 2012-03-22 17:37 ]

проверено

9.11 GB