Торренты   
 
 

 

Шрамы 3D / Paranormal Xperience 3D [2011, BDrip, half1080p, Anamorph OverUnder]

Рейтинг 3D:
14 голосов
7.2
Рейтинг фильма:
12 голосов
6.2
 
Вы должны быть авторизированы,
чтобы ставить оценки


Шрамы 3DParanormal Xperience 3D
Год выпуска: 2011
Страна: Испания (Rodar y Rodar, Antena 3 Films)
Жанр: Ужасы, Триллер
Продолжительность: 01:30:12
Перевод: Профессиональный (дублированный)
Режиссер: Sergi Vizcaino
Роли исполняли: Альба Рибас, Амайя Саламанка, Макси Иглесиас, Луис Фернандез, Урсула Корберо, Оскар Синела, Мануэль Де Блас, Мигель Анхель Дженнер, Эдуард Фарело
Роли озвучивали: Александр Гаврилин, Александра Остроухова, Никита Прозоровский
Описание: Шестеро студентов медицинского института отправляются в заброшенную сеть пещер, где, по легенде, до сих пор блуждает призрак умершего доктора. Молодые люди уверены, что встречи с паранормальным в наш современный век — не более чем игра воображения. Да и экспедиция организована исключительно ради исследования мифов о человеческом подсознании. Но, оказавшись в пещерах, путешественники неожиданно начинают погибать один за другим самыми страшными способами…--За исходник СПАСИБО , меценатам и gigant33! Проверено на встроенном плейере ТВ Samsung UE-C7000--Формат 3d: Anamorph OverUnder
Качество: BDrip
Контейнер: MKV
Видео: AVC / 1920х1080p / 23,976 fps / 8491 Kbps
Аудио: Русский / AC3 / 48 KHz / 5.1 ch / 640 Kbps
Субтитры: Отсутствуют

MediaInfo

General
UniqueID : 186541614135807397535152337952499893920 (0x8C569BA96ABFB0788E5ABAA8F7AD06A0)
Complete name : F:\Downloads\ParanormalXperience(3D)2011.halfOU(ash61).mkv
Format : Matroska
File size : 5.87 GiB
Duration : 1h 30mn
Overall bit rate : 9 316 Kbps
Movie name : Paranormal Xperience (3D) 2011 (ash61)
Encoded date : UTC 2012-03-23 07:41:09
Writing application : mkvmerge v3.4.0 ('Rapunzel') сборка от May 15 2010 09:38:20
Writing library : libebml v0.8.0 + libmatroska v0.9.0
Video
ID : 1
Format : AVC
Format/Info : Advanced Video Codec
Format profile : High@L4.1
Format settings, CABAC : Yes
Format settings, ReFrames : 4 frames
Format settings, GOP : M=1, N=5
Codec ID : V_MPEG4/ISO/AVC
Duration : 1h 30mn
Bit rate : 8 491 Kbps
Width : 1 920 pixels
Height : 1 080 pixels
Display aspect ratio : 16:9
Frame rate : 23.976 fps
Color space : YUV
Chroma subsampling : 4:2:0
Bit depth : 8 bits
Scan type : Progressive
Bits/(Pixel*Frame) : 0.171
Stream size : 5.35 GiB (91%)
Title : BDrip by ash61
Writing library : x264 core 119 r2106 07efeb4
Encoding settings : cabac=1 / ref=4 / deblock=1:-3:-3 / analyse=0x3:0x113 / me=umh / subme=9 / psy=1 / psy_rd=1.00:0.15 / mixed_ref=1 / me_range=16 / chroma_me=1 / trellis=2 / 8x8dct=1 / cqm=0 / deadzone=21,11 / fast_pskip=1 / chroma_qp_offset=-3 / threads=3 / sliced_threads=0 / nr=0 / decimate=1 / interlaced=0 / bluray_compat=0 / constrained_intra=0 / bframes=6 / b_pyramid=2 / b_adapt=2 / b_bias=0 / direct=3 / weightb=1 / open_gop=0 / weightp=2 / keyint=250 / keyint_min=23 / scenecut=40 / intra_refresh=0 / rc_lookahead=60 / rc=crf / mbtree=1 / crf=18.0 / qcomp=0.70 / qpmin=0 / qpmax=69 / qpstep=4 / vbv_maxrate=40000 / vbv_bufsize=40000 / crf_max=0.0 / nal_hrd=none / ip_ratio=1.40 / aq=1:0.70
Audio
ID : 2
Format : AC-3
Format/Info : Audio Coding 3
Mode extension : CM (complete main)
Codec ID : A_AC3
Duration : 1h 30mn
Bit rate mode : Constant
Bit rate : 640 Kbps
Channel(s) : 6 channels
Channel positions : Front: L C R, Side: L R, LFE
Sampling rate : 48.0 KHz
Bit depth : 16 bits
Compression mode : Lossy
Stream size : 413 MiB (7%)
Language : Russian
Menu
00:00:00.000 : :1
00:06:35.854 : :2
00:10:04.813 : :3
00:14:39.253 : :4
00:19:37.134 : :5
00:26:39.097 : :6
00:34:44.291 : :7
00:40:34.641 : :8
00:45:53.376 : :9
00:50:33.489 : :10
00:55:55.852 : :11
01:00:20.909 : :12
01:06:07.797 : :13
01:12:58.249 : :14
01:17:00.574 : :15
01:21:48.237 : :16

Скриншоты

Остальные раздачи этого фильма (3)
Благодарности релизеру (25)

Торрент:

Статус:

Размер:

Зарегистрирован   [ 2012-03-23 14:25 ]

проверено

5.87 GB

 
 Мнение о фильме (8)





3-D ЕСТЬ НО МОЖНО И СМОТРЕТЬ ТАК НИЧЕМ НИ ХУЖЕ
 

Фильм неплохой но сильно кроважадный 3D норма !
 

3D просто супер, впечатляет, фильм чистейший
 

3-д конечно не Аватар. Но объёмность и глубина картинки присутствуют. Есть несколько моментов когда 3-д эффекты действительно пугают, жена даже повизгивала. Хотя для любителей "вылетов" - наверно это не ваш фильм. При просмотре фильма, ни разу не возникло ощущения плоской картинки с редкими включениями 3-д. Другими словами 3-д картинка не напрягала. А сюжет - достаточно прямолинейный и предсказуемый, я бы сказал шаблонный.

Осторожно, спойлер!

Уже к середине фильма стало понятно, что всё дело в сестрёнках, точнее одной из них. Дальше уже наблюдал чем дело закончится.
Ну вот как-то так.-Спойлерение надо прятать!
Ash61
 
Владимирович Профиль 18-Окт-2013 06:23

скорости подайте ))
 
Андрей23192319 Профиль 01-Май-2015 03:31

Станьте на роздачу))
 
Андрей23192319 Профиль 01-Май-2015 12:43

Владимирович, Вот на кол таких людей сажать надо... Если вы посмотрели уже, то зачем спойлерить то?
 

Станьте на раздачу
 
aleksander19903005@gmail. Профиль 11-Дек-2015 16:43