Торренты   
 
 


Тaчки 2 / Cаrs 2 (Джон Лассетер, Брэд) [2011 г., Anaglyph, red'cyan (Dubois)]

Рейтинг 3D:
Пока никто не голосовал
Рейтинг фильма:
Пока никто не голосовал
 
Вы должны быть авторизированы,
чтобы ставить оценки


Тaчки 2 / Cаrs 2
Год выпуска: 2011
Страна: США
Жанр: Мультфильм, Приключения, Семейный, Комедия
Продолжительность: 01:47:00
Перевод: Профессиональный (полное дублирование)
Режиссер: Джон Лассетер, Брэд / John Lasseter, Brad
В ролях:
Молния МакКуинн - Дмитрий Харатьян / Owen Wilson
Мэтр - Сергей Кузнецов / Larry "The Cable Guy"
Флинн МакМиссайл - Леонид Каневский / Michael Caine
Холли Шифтвелл - Жанна Фриске / Emily Mortimer
Сэр Майлс Экслрод - Леонид Ярмольник / Eddie Izzard
Франческо Бернулли - Сергей Дьячков / John Turturro
Брент Мустангбургер - Александр Балакирев / Brent Musburger
Грем - Сергей Куприянов / Joe Mantegna
Профессор Ц - Юрий Герцман / Thomas Kretschmann
Эйсер - Алексей Макрецкий / Peter Jacobson
Салли - Алика Смехова / Bonnie Hunt
Дэвид Хоббскап - Михаил Захаров / David Hobbs
Королева - Татьяна Гордеева / Vanessa Redgrave
Рэймон - Андрей Машков / Cheech Marin
Льюис Хэмилтон - Александр Лушин / Lewis Hamilton
Фернандо Алонсо - Fernando Alonso
Виталий Петров - Виталий Петров
Себастьян Шнелль - Sebastian Vettel
Жак Вильнёв - Jacques Villeneuve
Описание: Молния МакКуин и его друг Мэтр отправляются в международное путешествие — когда МакКуин получает шанс участвовать в соревнованиях для самых быстрых машин в мире, Мировом Гран-При. Этапы этих престижных гонок заведут друзей в Токио, на набережные Парижа, на побережье Италии, и на улицы туманного Лондона.
Доп. информация: Аудио: Русский / Дублированный Dolby AC3 48000Hz 6ch 448 Kbps
Формат 3d: Anaglyph (Dubois)
Цвета очков:

Видео: V_MPEG4/ISO/AVC 1920x800 23.98fps 6 232 Kbps

MediaInfo

General
Format : Matroska
Format version : Version 2
File size : 5.09 GiB
Duration : 1h 47mn
Overall bit rate : 6 816 Kbps
Movie name : Cars2.3D.2011.BD3DRip.720p.OU.x264.AC3.3D-RuGroup
Encoded date : UTC 2011-11-08 16:36:52
Writing application : mkvmerge v4.4.0 ('Die Wiederkehr') сборка от Oct 31 2010 21:52:48
Writing library : libebml v1.0.0 + libmatroska v1.0.0
Video
ID : 1
Format : AVC
Format/Info : Advanced Video Codec
Format profile : High@L4.0
Format settings, CABAC : Yes
Format settings, ReFrames : 4 frames
Codec ID : V_MPEG4/ISO/AVC
Duration : 1h 47mn
Bit rate : 6 232 Kbps
Width : 1 920 pixels
Height : 800 pixels
Display aspect ratio : 2.40:1
Frame rate : 23.976 fps
Color space : YUV
Chroma subsampling : 4:2:0
Bit depth : 8 bits
Scan type : Progressive
Bits/(Pixel*Frame) : 0.169
Stream size : 4.66 GiB (91%)
Writing library : x264 core 115 r1995 c1e60b9
Encoding settings : cabac=1 / ref=4 / deblock=1:-2:-2 / analyse=0x3:0x113 / me=umh / subme=9 / psy=1 / psy_rd=1.00:0.15 / mixed_ref=1 / me_range=16 / chroma_me=1 / trellis=2 / 8x8dct=1 / cqm=0 / deadzone=21,11 / fast_pskip=1 / chroma_qp_offset=-3 / threads=6 / sliced_threads=0 / nr=0 / decimate=1 / interlaced=0 / bluray_compat=0 / constrained_intra=0 / bframes=6 / b_pyramid=0 / b_adapt=2 / b_bias=0 / direct=3 / weightb=1 / open_gop=0 / weightp=2 / keyint=250 / keyint_min=23 / scenecut=40 / intra_refresh=0 / rc_lookahead=40 / rc=crf / mbtree=1 / crf=18.0 / qcomp=0.60 / qpmin=10 / qpmax=69 / qpstep=4 / ip_ratio=1.40 / aq=1:1.00
Audio
ID : 2
Format : AC-3
Format/Info : Audio Coding 3
Mode extension : CM (complete main)
Codec ID : A_AC3
Duration : 1h 47mn
Bit rate mode : Constant
Bit rate : 448 Kbps
Channel(s) : 6 channels
Channel positions : Front: L C R, Side: L R, LFE
Sampling rate : 48.0 KHz
Bit depth : 16 bits
Compression mode : Lossy
Stream size : 343 MiB (7%)
Title : Russian DUB (5.1 / 48 kHz / 448 kbps)
Language : Russian
Menu
00:00:00.000 : :CHAPTER01
00:01:29.172 : :CHAPTER02
00:04:47.579 : :CHAPTER03
00:07:43.672 : :CHAPTER04
00:12:07.894 : :CHAPTER05
00:17:48.943 : :CHAPTER06
00:20:01.325 : :CHAPTER07
00:22:51.537 : :CHAPTER08
00:26:34.635 : :CHAPTER09
00:30:30.162 : :CHAPTER10
00:32:41.960 : :CHAPTER11
00:34:13.510 : :CHAPTER02
00:37:15.567 : :CHAPTER13
00:40:44.150 : :CHAPTER14
00:42:53.154 : :CHAPTER15
00:46:18.567 : :CHAPTER16
00:46:57.940 : :CHAPTER17
00:49:48.527 : :CHAPTER18
00:53:56.400 : :CHAPTER19
00:54:57.252 : :CHAPTER20
00:57:36.203 : :CHAPTER21
00:59:27.731 : :CHAPTER22
01:02:16.942 : :CHAPTER23
01:05:56.286 : :CHAPTER24
01:12:31.764 : :CHAPTER25
01:14:05.900 : :CHAPTER26
01:15:24.186 : :CHAPTER27
01:21:12.993 : :CHAPTER28
01:23:22.247 : :CHAPTER29
01:29:06.925 : :CHAPTER30
01:31:48.128 : :CHAPTER31
01:32:41.222 : :CHAPTER32
01:38:18.601 : :CHAPTER33

Скриншоты





Благодарности релизеру (0)

Торрент:

Статус:

Размер:

Зарегистрирован   [ 2012-03-25 11:06 ]

проверено

5.09 GB