Торренты   
 
 

 

Шрамы 3D / Paranormal Xperience 3D (Серхи Вискаино) [2011 г., Anamorph SideBySide]

Рейтинг 3D:
14 голосов
7.2
Рейтинг фильма:
12 голосов
6.2
 
Вы должны быть авторизированы,
чтобы ставить оценки


Шрамы 3D / Paranormal Xperience 3D
Год выпуска: 2011
Страна: Испания
Жанр: ужасы, триллер
Продолжительность: 1:30:13
Перевод: Профессиональный (полное дублирование)
Режиссер: Серхи Вискаино
В ролях: Амайя Саламанка, Макси Иглесиас, Луис Фернандез, Эдуард Фарело, Урсула Корберо, Мануэль Де Блас, Альба Рибас, Мигель Анхель Дженнер, Оскар Синела
Описание: Шестеро студентов медицинского института отправляются в заброшенную сеть пещер, где, по легенде, до сих пор блуждает призрак умершего доктора. Молодые люди уверены, что встречи с паранормальным в наш современный век - не более чем игра воображения. Да и экспедиция организована исключительно ради исследования мифов о человеческом подсознании. Но, оказавшись в пещерах, путешественники неожиданно начинают погибать один за другим самыми страшными способами...
Доп. информация: Проверено на встроенном плейере LG575s
Формат 3d: Anamorph SideBySide
Видео: BDrip,AVC/1920x1080p (16:9), 23,976 fps/9223kb/s

MI

Общее
Уникальный идентификатор : 237349781119710816600470664260076912818 (0xB28FE7B302796FA5B8DB67E02CBB40B2)
Полное имя : D:\3DDD\ШРАМЫ 3D Half SBS (Palych).mkv
Формат : Matroska
Версия формата : Version 2
Размер файла : 5,81 Гбайт
Продолжительность : 1 ч. 30 м.
Общий поток : 9223 Кбит/сек
Дата кодирования : UTC 2012-03-26 08:06:37
Программа кодирования : mkvmerge v3.4.0 ('Rapunzel') сборка от May 15 2010 09:38:20
Библиотека кодирования : libebml v0.8.0 + libmatroska v0.9.0
Видео
Идентификатор : 1
Формат : AVC
Формат/Информация : Advanced Video Codec
Профиль формата : High@L4.1
Параметр CABAC формата : Да
Параметр ReFrames формата : 4 кадра
Идентификатор кодека : V_MPEG4/ISO/AVC
Продолжительность : 1 ч. 30 м.
Битрейт : 8591 Кбит/сек
Ширина : 1920 пикселей
Высота : 1080 пикселей
Соотношение сторон : 16:9
Частота кадров : 23,976 кадра/сек
Цветовое пространство : YUV
Субдискретизация насыщенности : 4:2:0
Битовая глубина : 8 бит
Тип развёртки : Прогрессивная
Бит/(Пиксели*Кадры) : 0.173
Размер потока : 5,41 Гбайт (93%)
Библиотека кодирования : x264 core 120 r2164 da19765
Настройки программы : cabac=1 / ref=4 / deblock=1:-3:-3 / analyse=0x3:0x113 / me=umh / subme=9 / psy=1 / psy_rd=1.00:0.15 / mixed_ref=1 / me_range=16 / chroma_me=1 / trellis=2 / 8x8dct=1 / cqm=0 / deadzone=21,11 / fast_pskip=1 / chroma_qp_offset=-3 / threads=3 / sliced_threads=0 / nr=0 / decimate=1 / interlaced=0 / bluray_compat=0 / constrained_intra=0 / bframes=6 / b_pyramid=2 / b_adapt=2 / b_bias=0 / direct=3 / weightb=1 / open_gop=0 / weightp=2 / keyint=250 / keyint_min=23 / scenecut=40 / intra_refresh=0 / rc_lookahead=40 / rc=crf / mbtree=1 / crf=18.0 / qcomp=0.70 / qpmin=0 / qpmax=69 / qpstep=4 / vbv_maxrate=40000 / vbv_bufsize=40000 / crf_max=0.0 / nal_hrd=none / ip_ratio=1.40 / aq=1:0.80
Язык : English
Default : Нет
Forced : Нет
Аудио
Идентификатор : 2
Формат : AC-3
Формат/Информация : Audio Coding 3
Расширение режима : CM (complete main)
Идентификатор кодека : A_AC3
Продолжительность : 1 ч. 30 м.
Вид битрейта : Постоянный
Битрейт : 448 Кбит/сек
Каналы : 6 каналов
Расположение каналов : Front: L C R, Side: L R, LFE
Частота : 48,0 КГц
Битовая глубина : 16 бит
Метод сжатия : С потерями
Размер потока : 289 Мбайт (5%)
Default : Да
Forced : Нет

Скриншоты





Остальные раздачи этого фильма (3)
Благодарности релизеру (4)

Торрент:

Статус:

Размер:

Зарегистрирован   [ 2012-03-26 11:25 ]

проверено

5.81 GB

 
 Мнение о фильме (8)





3-D ЕСТЬ НО МОЖНО И СМОТРЕТЬ ТАК НИЧЕМ НИ ХУЖЕ
 

Фильм неплохой но сильно кроважадный 3D норма !
 

3D просто супер, впечатляет, фильм чистейший
 

3-д конечно не Аватар. Но объёмность и глубина картинки присутствуют. Есть несколько моментов когда 3-д эффекты действительно пугают, жена даже повизгивала. Хотя для любителей "вылетов" - наверно это не ваш фильм. При просмотре фильма, ни разу не возникло ощущения плоской картинки с редкими включениями 3-д. Другими словами 3-д картинка не напрягала. А сюжет - достаточно прямолинейный и предсказуемый, я бы сказал шаблонный.

Осторожно, спойлер!

Уже к середине фильма стало понятно, что всё дело в сестрёнках, точнее одной из них. Дальше уже наблюдал чем дело закончится.
Ну вот как-то так.-Спойлерение надо прятать!
Ash61
 
Владимирович Профиль 18-Окт-2013 06:23

скорости подайте ))
 
Андрей23192319 Профиль 01-Май-2015 03:31

Станьте на роздачу))
 
Андрей23192319 Профиль 01-Май-2015 12:43

Владимирович, Вот на кол таких людей сажать надо... Если вы посмотрели уже, то зачем спойлерить то?
 

Станьте на раздачу
 
aleksander19903005@gmail. Профиль 11-Дек-2015 16:43