Торренты   
 
 


проблема с 3D фильмами

Скачал аватар разделил его по 3800мб при помощи mkvmerge GUI телек его не читает
скажите можно ли и через что конвертировать этот mkv чтобы ящик его читал
LG 50pz250
Комментарии:





LG BM-LDS 201
По поиску модели - хлебопечь выдает:)
ТВ обязательно 3Д должен быть.
Флешку в NTFS отформатировать вместо FAT32 и тогда резать по 4Гб не надо. Фильм общим разрешением не выше 1920х1080, только с приставкой Anamorph (Half). Справа банер поиска с картинкой телевизора, всё что по нему ищется.
 

skank51, выложите здесь МедиаИнфо одного из получившихся файлов...
 

skank51, выложите здесь МедиаИнфо одного из получившихся файлов...
General
Unique ID : 195438063155849350203041923011033532331 (0x93080076A6F8C6478BC723A2E89D87AB)
Complete name : C:\mkvFlash\avatar\Avatar_Extended_Cut_3D+2D (1)-002.mkv
Format : Matroska
Format version : Version 2
File size : 3.73 GiB
Duration : 40mn 9s
Overall bit rate : 13.3 Mbps
Movie name : BDRip - by TopGun
Encoded date : UTC 2012-03-26 06:03:38
Writing application : mkvmerge v5.4.0 ('Piper') built on Mar 10 2012 13:34:39
Writing library : libebml v1.2.3 + libmatroska v1.3.0
Video
ID : 1
Format : AVC
Format/Info : Advanced Video Codec
Format profile : High@L4.0
Format settings, CABAC : Yes
Format settings, ReFrames : 4 frames
Muxing mode : Header stripping
Codec ID : V_MPEG4/ISO/AVC
Duration : 40mn 9s
Bit rate : 12.4 Mbps
Width : 1 920 pixels
Height : 1 080 pixels
Display aspect ratio : 0.889
Original display aspect ratio : 16:9
Frame rate : 23.976 fps
Color space : YUV
Chroma subsampling : 4:2:0
Bit depth : 8 bits
Scan type : Progressive
Bits/(Pixel*Frame) : 0.250
Stream size : 3.48 GiB (93%)
Title : Avatar [Extended Cut]
Language : English
Default : No
Forced : No
Audio
ID : 2
Format : AC-3
Format/Info : Audio Coding 3
Mode extension : CM (complete main)
Muxing mode : Header stripping
Codec ID : A_AC3
Duration : 40mn 9s
Bit rate mode : Constant
Bit rate : 640 Kbps
Channel(s) : 6 channels
Channel positions : Front: L C R, Side: L R, LFE
Sampling rate : 48.0 KHz
Bit depth : 16 bits
Compression mode : Lossy
Delay relative to video : 25ms
Stream size : 184 MiB (5%)
Title : Russian - Профессиональный (полное дублирование)
Language : Russian
Default : Yes
Forced : No
Menu
00:00:00.000 : :00:39:08.053
00:00:21.604 : :00:41:18.475
00:06:46.447 : :00:47:43.318
00:07:12.306 : :00:48:09.177
00:08:20.041 : :00:49:16.912
00:12:08.144 : :00:53:05.015
00:13:25.137 : :00:54:22.008
00:14:45.342 : :00:55:42.213
00:16:47.172 : :00:57:44.043
00:17:35.179 : :00:58:32.050
00:20:12.544 : :01:01:09.415
00:22:12.748 : :01:03:09.619
00:23:00.337 : :01:03:57.208
00:26:06.356 : :01:07:03.227
00:28:43.763 : :01:09:40.634
00:30:53.351 : :01:11:50.222
00:34:22.018 : :01:15:18.889
00:34:56.928 : :01:15:53.799
00:36:35.359 : :01:17:32.230
00:37:11.020 : :01:18:07.891