Торренты   
 
 


Иудейский лев 3Д / The Lion Of Judah 3D (Дерек Брум, Роджер Хоукинс / Deryck Broom, Roger Hawkins) [2011, 1080p, BDRip, Anamorph OverUnder]

Рейтинг 3D:
Пока никто не голосовал
Рейтинг фильма:
Пока никто не голосовал
 
Вы должны быть авторизированы,
чтобы ставить оценки


Иудейский лев 3D / The Lion Of Judah 3D
Год выпуска: 2011
Страна: США
Студия: Animated Family Films
Жанр: мультфильм, детский
Продолжительность: 01:27:12
Перевод: Любительский (многоголосый)
Русские субтитры: нет
Режиссер: Дерек Брум, Роджер Хоукинс / Deryck Broom, Roger Hawkins
Описание:
Ягненок с сердцем льва намеревается спасти мир, но его в канун Пасхи везут в Иерусалим, чтобы принести в жертву Богу. На скотном дворе, где 33 года назад родился младенец Иисус, в ящик с ягненком попадает петух и тогда, чтобы спасти своих друзей, животные отправляются в город, где становятся свидетелями казни и воскрешения Иисуса Христа ...--Проверено на встроенном плейере ТВ Samsung UE-D7000 --Качество: BDrip
Контейнер: MKV
Формат 3D: Half OverUnder / Вертикальная анаморфная стереопара
Порядок ракурсов: левый ракурс первый
Видео кодек: x264
Видео: AVC / 1920x1080p / 23.98fps / 5494 kbps
Аудио 1: Русский / AC3 / 48000Hz / 5.1 ch / 384 Kbps
Аудио 2: Английский / DTS / 48000Hz / 5.1 ch / 1510 Kbps
Субтитры: Отсутствуют

MediaInfo

General
Complete name : The.Lion.Of.Judah.2011.3D.H-OU.1080p.Rus-MVO.ENG-DTS.z-man.The3DTeam (1).mkv
Format : Matroska
File size : 4.59 GiB
Duration : 1h 27mn
Overall bit rate : 7 531 Kbps
Encoded date : UTC 2012-03-28 17:17:28
Writing application : mkvmerge v3.4.0 ('Rapunzel') сборка от May 15 2010 09:38:20
Writing library : libebml v0.8.0 + libmatroska v0.9.0
Video
ID : 1
Format : AVC
Format/Info : Advanced Video Codec
Format profile : High@L4.1
Format settings, CABAC : Yes
Format settings, ReFrames : 4 frames
Codec ID : V_MPEG4/ISO/AVC
Duration : 1h 27mn
Bit rate : 5 487 Kbps
Width : 1 920 pixels
Height : 1 080 pixels
Display aspect ratio : 16:9
Frame rate : 23.976 fps
Color space : YUV
Chroma subsampling : 4:2:0
Bit depth : 8 bits
Scan type : Progressive
Bits/(Pixel*Frame) : 0.110
Stream size : 3.34 GiB (73%)
Title : The.Lion.Of.Judah.2011.3D.H-OU.1080p.ENG.DTS.z-man.The3DTeam
Writing library : x264 core 122 r2183 c522ad1
Encoding settings : cabac=1 / ref=4 / deblock=1:-3:-3 / analyse=0x3:0x113 / me=umh / subme=7 / psy=1 / psy_rd=1.00:0.15 / mixed_ref=1 / me_range=16 / chroma_me=1 / trellis=1 / 8x8dct=1 / cqm=0 / deadzone=21,11 / fast_pskip=1 / chroma_qp_offset=-3 / threads=12 / sliced_threads=0 / nr=0 / decimate=1 / interlaced=0 / bluray_compat=0 / constrained_intra=0 / bframes=3 / b_pyramid=2 / b_adapt=1 / b_bias=0 / direct=3 / weightb=1 / open_gop=0 / weightp=2 / keyint=250 / keyint_min=23 / scenecut=40 / intra_refresh=0 / rc_lookahead=40 / rc=crf / mbtree=1 / crf=20.0 / qcomp=0.60 / qpmin=10 / qpmax=69 / qpstep=4 / ip_ratio=1.40 / aq=1:1.00
Audio #1
ID : 2
Format : AC-3
Format/Info : Audio Coding 3
Mode extension : CM (complete main)
Codec ID : A_AC3
Duration : 1h 27mn
Bit rate mode : Constant
Bit rate : 384 Kbps
Channel(s) : 6 channels
Channel positions : Front: L C R, Side: L R, LFE
Sampling rate : 48.0 KHz
Bit depth : 16 bits
Stream size : 240 MiB (5%)
Title : MVO
Language : Russian
Audio #2
ID : 3
Format : DTS
Format/Info : Digital Theater Systems
Codec ID : A_DTS
Duration : 1h 27mn
Bit rate mode : Constant
Bit rate : 1 510 Kbps
Channel(s) : 6 channels
Channel positions : Front: L C R, Side: L R, LFE
Sampling rate : 48.0 KHz
Bit depth : 24 bits
Video delay : 11ms
Stream size : 942 MiB (20%)
Title : Original
Language : English

Скриншоты



.nfo

______________ ______________ ________ ________
\__ ___/ | \_ _____/ \_____ \\______ \
| | / ~ \ __)_ _(__ < | | \
| | \ Y / \ / \| ` \
|____| \___|_ /_______ / /______ /_______ /
\/ \/ \/ \/
.-= Honesty .-=-. Loyalty .-=-. Integrity =-.
______________________ _____ _____
\__ ___/\_ _____/ / _ \ / \
| | | __)_ / /_\ \ / \ / \
| | | \/ | \/ Y \
| | /_______ /\____|__ /\____|__ /
|____| ` \/ \/ \/
-===[ RELEASE NAME ]===¬
The.Lion.Of.Judh.2011.3D.H-OU.1080p.ENG.DTS.z-man.The3DTeam
L--------------------------------------------------------------------------------------------
-===[ INFORMATION ]===¬
г-------------------------------------------------------------------------------------------¬
Type.................: 3D Blu-ray Half Over Under Encode
Audio................: English 5.1 DTS
Genre................: Animation
IMDb Link............: http://www.imdb.com/title/tt1212022/
Format...............: MKV
Encoder..............: z-man
Extra Encode Info....: crf20
MKV Size.............: 4.35 GiB
Length...............: 1h 27mn
Video Format.........: H264
Resolution...........: 1080P
FPS..................: 23.976
Source...............: The3DTeam
Compression Format...: RAR
L--------------------------------------------------------------------------------------------
-====[ POST INFO ]====¬
г-------------------------------------------------------------------------------------------¬
Posted by............: The3DTeam
Posted on............: 13/MAR/2012
L--------------------------------------------------------------------------------------------
-====[ FILE DETAILS ]====¬
г-------------------------------------------------------------------------------------------¬
Format : Matroska
Format version : Version 3 / Version 2
File size : 4.35 GiB
Duration : 1h 27mn
Overall bit rate : 7 146 Kbps
Encoded date : UTC 2012-03-13 10:00:37
Writing application : mkvmerge v5.4.0 ('Piper')
Writing library : libebml v1.2.3 + libmatroska v1.3.0
Video
ID : 1
Format : AVC
Format/Info : Advanced Video Codec
Format profile : High@L4.1
MultiView_Count : 2
MultiView_Layout : Top-Bottom (left eye first)
Format settings, CABAC : Yes
Format settings, ReFrames : 4 frames
Codec ID : V_MPEG4/ISO/AVC
Duration : 1h 27mn
Bit rate : 5 494 Kbps
Width : 1 920 pixels
Height : 1 080 pixels
Display aspect ratio : 16:9
Frame rate : 23.976 fps
Color space : YUV
Chroma subsampling : 4:2:0
Bit depth : 8 bits
Scan type : Progressive
Bits/(Pixel*Frame) : 0.111
Stream size : 3.35 GiB (77%)
Title : The.Lion.Of.Judah.2011.3D.H-OU.1080p.ENG.DTS.z-man.The3DTeam
Writing library : x264 core 122 r2183 c522ad1
Encoding settings : cabac=1 / ref=4 / deblock=1:-3:-3 / analyse=0x3:0x113 /
me=umh / subme=7 / psy=1 / psy_rd=1.00:0.15 / mixed_ref=1 / me_range=16 / chroma_me=1 / trellis=1 /
8x8dct=1 / cqm=0 / deadzone=21,11 / fast_pskip=1 / chroma_qp_offset=-3 / threads=12 / sliced_threads=0 /
nr=0 / decimate=1 / interlaced=0 / bluray_compat=0 / constrained_intra=0 / bframes=3 / b_pyramid=2 /
b_adapt=1 / b_bias=0 / direct=3 / weightb=1 / open_gop=0 / weightp=2 / keyint=250 / keyint_min=23 /
scenecut=40 / intra_refresh=0 / rc_lookahead=40 / rc=crf / mbtree=1 / crf=20.0 / qcomp=0.60 / qpmin=10 /
qpmax=69 / qpstep=4 / ip_ratio=1.40 / aq=1:1.00
Default : Yes
Forced : No
Audio
ID : 2
Format : DTS
Format/Info : Digital Theater Systems
Codec ID : A_DTS
Duration : 1h 27mn
Bit rate mode : Constant
Bit rate : 1 510 Kbps
Channel(s) : 6 channels
Channel positions : Front: L C R, Side: L R, LFE
Sampling rate : 48.0 KHz
Bit depth : 24 bits
Compression mode : Lossy
Stream size : 942 MiB (21%)
Language : English
Default : Yes
Forced : No
L--------------------------------------------------------------------------------------------
-====[ FINAL WORD ]====¬
г-------------------------------------------------------------------------------------------¬
If you share our releases on another site, please keep the filename the same, and make
sure proper credit is given to us. It is a simple thing to ask, but these days a lot of
uploaders do not give proper credit where it is due. Doing this ensures we continue to
bring you quality 3D releases. We go to extraordinary lengths to create these releases,
and alls we ask is you please respect our work. Thank you - The3DTeam.
L----------------------------------------------------------------------------------nfO:3D4u--
Спасибо за рип z-man и The3DTeamВНИМАНИЕ!
28.03.2012 торрент перзалит (установлен приоритет русской дорожки). Просьба всех желающих перекачать торрент
Благодарности релизеру (2)

Торрент:

Статус:

Размер:

Зарегистрирован   [ 2012-03-28 21:55 ]

проверено

4.59 GB