Торренты   
 
 

 

Трейлер Новый Человек-паук 3D/ Trailer The Amazing Spider-Man 3D [2012 г., DCPrip, Anamorph OverUnder]

Рейтинг 3D:
1 голосов
7.0
Рейтинг фильма:
2 голосов
7.5
 
Вы должны быть авторизированы,
чтобы ставить оценки


Трейлер Новый Человек-паук 3D
Trailer The Amazing Spider-Man 3D
--Год выпуска: 2012
Страна: США
Жанр: боевик, триллер, приключения
Продолжительность: 00:01:36--Описание: Новая интерпретация истории о человеке-пауке. Обычного школьника Питера Паркера, которого все считали неудачником и занудой, в один прекрасный день кусает паук-мутант, после чего с нескладным юношей происходит фантастическая метаморфоза.--Формат 3d: Anamorph OverUnder (левый ракурс верхний)
Качество: DCPrip
Контейнер: mkv
Видео: AVC / 1920х1080p / 23.976 fps / 7039 Kbps
Аудио: Русский / AC3 / 6 ch / 448 Kbps / 48 KHz

MediaInfo:

Код:
General
Unique ID                        : 238758721757611756619431351316887992065 (0xB39F41D6007F30728A2D38F37ACD7701)
Complete name                    : L:\_3D\3D-Trailers\Trailer_TheAmazingSpiderMan3D.HalfOU-abq.mkv
Format                           : Matroska
File size                        : 88.0 MiB
Duration                         : 1mn 36s
Overall bit rate                 : 7 639 Kbps
Encoded date                     : UTC 2012-03-12 21:33:26
Writing application              : mkvmerge v4.0.0 ('The Stars were mine') сборка от Jun  6 2010 16:18:42
Writing library                  : libebml v1.0.0 + libmatroska v1.0.0
Video
ID                               : 1
Format                           : AVC
Format/Info                      : Advanced Video Codec
Format profile                   : High@L4.1
Format settings, CABAC           : Yes
Format settings, ReFrames        : 4 frames
Codec ID                         : V_MPEG4/ISO/AVC
Duration                         : 1mn 36s
Bit rate                         : 7 039 Kbps
Width                            : 1 920 pixels
Height                           : 1 080 pixels
Display aspect ratio             : 16:9
Frame rate                       : 23.976 fps
Color space                      : YUV
Chroma subsampling               : 4:2:0
Bit depth                        : 8 bits
Scan type                        : Progressive
Bits/(Pixel*Frame)               : 0.142
Stream size                      : 81.1 MiB (92%)
Writing library                  : x264 core 116 r2074 2641b9e
Encoding settings                : cabac=1 / ref=4 / deblock=1:-3:-3 / analyse=0x3:0x113 / me=umh / subme=9 / psy=1 / psy_rd=1.00:0.15 / mixed_ref=1 / me_range=16 / chroma_me=1 / trellis=2 / 8x8dct=1 / cqm=0 / deadzone=21,11 / fast_pskip=1 / chroma_qp_offset=-3 / threads=6 / sliced_threads=0 / nr=0 / decimate=1 / interlaced=0 / bluray_compat=0 / constrained_intra=0 / bframes=6 / b_pyramid=2 / b_adapt=2 / b_bias=0 / direct=3 / weightb=1 / open_gop=0 / weightp=2 / keyint=250 / keyint_min=23 / scenecut=40 / intra_refresh=0 / rc_lookahead=60 / rc=crf / mbtree=1 / crf=18.0 / qcomp=0.60 / qpmin=0 / qpmax=69 / qpstep=4 / vbv_maxrate=40000 / vbv_bufsize=40000 / crf_max=0.0 / nal_hrd=none / ip_ratio=1.40 / aq=1:0.70
Language                         : English
Audio
ID                               : 2
Format                           : AC-3
Format/Info                      : Audio Coding 3
Mode extension                   : CM (complete main)
Codec ID                         : A_AC3
Duration                         : 1mn 36s
Bit rate mode                    : Constant
Bit rate                         : 448 Kbps
Channel(s)                       : 6 channels
Channel positions                : Front: L C R, Side: L R, LFE
Sampling rate                    : 48.0 KHz
Bit depth                        : 16 bits
Compression mode                 : Lossy
Stream size                      : 5.16 MiB (6%)
Language                         : Russian

Скриншоты


Благодарности релизеру (2)

Торрент:

Статус:

Размер:

Зарегистрирован   [ 2012-03-27 15:54 ]

проверено

88 MB

 
 Мнение о фильме (1)





В трейлере есть несколько секунд отличной 3d сцены (с видом из глаз). Выглядит впечатляюще и в тему кино отлично вписывается. Но как оказалось в кино, сняты эти несколько секунд только для затравки в трейлер. Трудно поверить, но в кино нет ни секунды больше, никаких специальных сцен под 3d. Очередной боевичок, где 3д пришито как получится.