Торренты   
 
 

 

Новая земля 3D / Nova zembla 3D (Рейну Урлеманс) [2011 г., Anamorph OverUnder]

Рейтинг 3D:
10 голосов
7.5
Рейтинг фильма:
13 голосов
9.4
 
Вы должны быть авторизированы,
чтобы ставить оценки


Новая земля 3D / Nova zembla 3D
Год выпуска: 2011
Страна: Нидерланды
Жанр: исторический,приключения.
Продолжительность: 01:49:03
Перевод: Любительский (двухголосый закадровый)
Русские субтитры: нет
Режиссер на русском: Рейну Урлеманс
Режиссер на английском: Reinout Oerlemans
В ролях:
Даутцен Крёз, Дерек де Линт, Ян Деклер, Сэмми Шилт, Виктор Рейнир,
Тюн Куилбур, Бас Кейзер, Мэдс Уиттерманс, Иуда Гослинга
Описание:
В 1594—1597 годах Баренц совершил три экспедиции в Арктику для поиска Северо-Восточного прохода в Тихий океан, открыв и описав берега Новой Земли. Во время последнего плавания корабль Баренца затёрло во льдах, и команде пришлось остаться на зимовку в условиях полярной ночи на побережье архипелага. Многие члены команды, в их числе сам Баренц, не выдержали лишений арктической зимы и погибли. Об этом путешествии повествует дневник одного из членов команды — Херрита де Фейра. Дневники де Фейра сегодня воспринимаются как источник научного материала, а голландские дети изучают историю мореплавания Баренца по гравюрам из дневника моряка.--

--Качество: BDrip
Контейнер: MKV
Формат 3D: Half OverUnder / Вертикальная анаморфная стереопара
Порядок ракурсов: левый ракурс первый
Видео кодек: h.264
Аудио кодек: AC3
Видео: AVC / 1920х1080p / 23,976 fps / 6261 Kbps
Аудио 1: Русский / AC3 / 48 KHz / 5.1 ch / 448 Kbps (двухголосый закадровый)
Аудио 2: Русский / AC3 / 48 KHz / 5.1 ch / 448 Kbps (одноголосый закадровый)

MediaInfo

Общее
Уникальный идентификатор : 211526910780802253822999167237031297869 (0x9F2299E51309A44DAB20BC282BAD834D)
Полное имя : E:\кино\Novaya.zemlya(3D)2011.halfOU(marik 05).mkv
Формат : Matroska
Версия формата : Version 2
Размер файла : 5,56 Гбайт
Продолжительность : 1 ч. 49 м.
Общий поток : 7302 Кбит/сек
Название фильма : Novaya.zemlya.3D.2011.halfOU (marik 05).mkv
Дата кодирования : UTC 2012-03-28 14:43:45
Программа кодирования : mkvmerge v3.4.0 ('Rapunzel') сборка от May 15 2010 09:38:20
Библиотека кодирования : libebml v0.8.0 + libmatroska v0.9.0
Видео
Идентификатор : 1
Формат : AVC
Формат/Информация : Advanced Video Codec
Профиль формата : High@L4.1
Параметр CABAC формата : Да
Параметр ReFrames формата : 4 кадра
Идентификатор кодека : V_MPEG4/ISO/AVC
Продолжительность : 1 ч. 49 м.
Битрейт : 6261 Кбит/сек
Ширина : 1920 пикселей
Высота : 1080 пикселей
Соотношение сторон : 16:9
Частота кадров : 23,976 кадра/сек
Цветовое пространство : YUV
Субдискретизация насыщенности : 4:2:0
Битовая глубина : 8 бит
Тип развёртки : Прогрессивная
Бит/(Пиксели*Кадры) : 0.126
Размер потока : 4,77 Гбайт (86%)
Библиотека кодирования : x264 core 120 r2164 da19765
Настройки программы : cabac=1 / ref=4 / deblock=1:-3:-3 / analyse=0x3:0x133 / me=umh / subme=9 / psy=1 / psy_rd=1.00:0.05 / mixed_ref=1 / me_range=16 / chroma_me=1 / trellis=2 / 8x8dct=1 / cqm=0 / deadzone=21,11 / fast_pskip=1 / chroma_qp_offset=-3 / threads=6 / sliced_threads=0 / nr=0 / decimate=1 / interlaced=0 / bluray_compat=0 / constrained_intra=0 / bframes=6 / b_pyramid=2 / b_adapt=2 / b_bias=0 / direct=3 / weightb=1 / open_gop=0 / weightp=2 / keyint=250 / keyint_min=23 / scenecut=40 / intra_refresh=0 / rc_lookahead=60 / rc=crf / mbtree=1 / crf=16.0 / qcomp=0.70 / qpmin=0 / qpmax=69 / qpstep=4 / vbv_maxrate=40000 / vbv_bufsize=40000 / crf_max=0.0 / nal_hrd=none / ip_ratio=1.40 / aq=1:0.80
Default : Да
Forced : Нет
Аудио #1
Идентификатор : 2
Формат : AC-3
Формат/Информация : Audio Coding 3
Расширение режима : CM (complete main)
Идентификатор кодека : A_AC3
Продолжительность : 1 ч. 49 м.
Вид битрейта : Постоянный
Битрейт : 448 Кбит/сек
Каналы : 6 каналов
Расположение каналов : Front: L C R, Side: L R, LFE
Частота : 48,0 КГц
Битовая глубина : 16 бит
Метод сжатия : С потерями
Размер потока : 349 Мбайт (6%)
Заголовок : двухголосый (закадровый)
Язык : Russian
Default : Да
Forced : Да
Аудио #2
Идентификатор : 3
Формат : AC-3
Формат/Информация : Audio Coding 3
Расширение режима : CM (complete main)
Идентификатор кодека : A_AC3
Продолжительность : 1 ч. 49 м.
Вид битрейта : Постоянный
Битрейт : 448 Кбит/сек
Каналы : 6 каналов
Расположение каналов : Front: L C R, Side: L R, LFE
Частота : 48,0 КГц
Битовая глубина : 16 бит
Метод сжатия : С потерями
Размер потока : 349 Мбайт (6%)
Заголовок : одноголосый (закадровый)
Язык : Russian
Default : Нет
Forced : Нет
Меню
00:00:00.000 : :00:00:00.000
00:11:33.359 : :00:11:33.359
00:23:33.537 : :00:23:33.537
00:40:27.550 : :00:40:27.550
00:51:30.504 : :00:51:30.504
01:04:01.671 : :01:04:01.671
01:13:14.807 : :01:13:14.807
01:30:20.915 : :01:30:20.915
01:43:57.273 : :01:43:57.273

Скриншоты

Благодарности релизеру (17)

Торрент:

Статус:

Размер:

Зарегистрирован   [ 2012-03-28 19:58 ]

проверено

5.56 GB