Торренты   
 
 

 

Ржевский против Наполеона 3Д (Марюс Вайсберг) [2011 г., Anamorph SideBySide]

Рейтинг 3D:
4 голосов
7.5
Рейтинг фильма:
4 голосов
2.2
 
Вы должны быть авторизированы,
чтобы ставить оценки


© Закрыто правообладателем
Год выпуска: 2011
Страна: Россия, Украина
Жанр: комедия
Продолжительность: 01:23:05
Перевод: Не требуется
Режиссер: Марюс Вайсберг
В ролях:
Павел Деревянко, Владимир Зеленский, Светлана Ходченкова, Михаил Ефремов, Марат Башаров, Евгений Кошевой, Жан-Клод Ван Дамм, Анна Семенович, Анфиса Чехова, Михаил Галустян
Описание:
Чтобы развеять скуку, Наполеон Бонапарт затеял мировую войну. Не пропуская ни одной юбки, он оказывается со своей армией у ворот Первопрестольной. Русские полководцы решают внедрить к нему неприступную красавицу, la femme fatal, чтобы отвлечь узурпатора от захватнической деятельности. Только какая настоящая женщина устоит перед обаянием этого великого бабника? Ненастоящая!!! В смысле - переодетый мужчина! И такой мужчина есть - поручик Ржевский...--
--Исходник взят с трекера
Качество: BDrip
Контейнер: MKV
Формат 3D: Anamorph SideBySide /Горизонтальная анаморфная стереопара
Порядок ракурсов: левый ракурс первый
Видео кодек: h.264
Аудио кодек: AC3
Видео: AVC / 1920х1080p / 23,976 fps / 15.3 Mbps
Аудио : Русский / AC3 / 48 KHz / 5.1 ch / 640 Kbps

Скриншоты

MediaInfo

Общее
Уникальный идентификатор : 196585139249506344310196328240194278267 (0x93E4EBAE6BFCE6ABB9A208270440537B)
Полное имя : E:\кино\Rzhevsky against Napoleon.3D.1080p.BluRay.x264(marik05).mkv
Формат : Matroska
Версия формата : Version 2
Размер файла : 9,44 Гбайт
Продолжительность : 1 ч. 23 м.
Общий поток : 16,3 Мбит/сек
Название фильма : Rzhevsky against Napoleon.3D.1080p.BluRay.x264(marik05)
Дата кодирования : UTC 2012-04-02 07:08:51
Программа кодирования : mkvmerge v3.4.0 ('Rapunzel') сборка от May 15 2010 09:38:20
Библиотека кодирования : libebml v0.8.0 + libmatroska v0.9.0
Видео
Идентификатор : 1
Формат : AVC
Формат/Информация : Advanced Video Codec
Профиль формата : High@L4.1
Параметр CABAC формата : Да
Параметр ReFrames формата : 4 кадра
Идентификатор кодека : V_MPEG4/ISO/AVC
Продолжительность : 1 ч. 23 м.
Битрейт : 15,3 Мбит/сек
Ширина : 1920 пикселей
Высота : 1080 пикселей
Соотношение сторон : 16:9
Частота кадров : 23,976 кадра/сек
Цветовое пространство : YUV
Субдискретизация насыщенности : 4:2:0
Битовая глубина : 8 бит
Тип развёртки : Прогрессивная
Бит/(Пиксели*Кадры) : 0.308
Размер потока : 8,88 Гбайт (94%)
Заголовок : наполеон 3д
Библиотека кодирования : x264 core 120 r2164 da19765
Настройки программы : cabac=1 / ref=4 / deblock=1:-3:-3 / analyse=0x3:0x133 / me=umh / subme=9 / psy=1 / psy_rd=1.00:0.05 / mixed_ref=1 / me_range=16 / chroma_me=1 / trellis=2 / 8x8dct=1 / cqm=0 / deadzone=21,11 / fast_pskip=1 / chroma_qp_offset=-3 / threads=6 / sliced_threads=0 / nr=0 / decimate=1 / interlaced=0 / bluray_compat=0 / constrained_intra=0 / bframes=6 / b_pyramid=2 / b_adapt=2 / b_bias=0 / direct=3 / weightb=1 / open_gop=0 / weightp=2 / keyint=250 / keyint_min=23 / scenecut=40 / intra_refresh=0 / rc_lookahead=60 / rc=crf / mbtree=1 / crf=16.0 / qcomp=0.70 / qpmin=0 / qpmax=69 / qpstep=4 / vbv_maxrate=40000 / vbv_bufsize=40000 / crf_max=0.0 / nal_hrd=none / ip_ratio=1.40 / aq=1:0.80
Язык : Russian
Default : Да
Forced : Нет
Аудио
Идентификатор : 2
Формат : AC-3
Формат/Информация : Audio Coding 3
Расширение режима : CM (complete main)
Идентификатор кодека : A_AC3
Продолжительность : 1 ч. 23 м.
Вид битрейта : Постоянный
Битрейт : 640 Кбит/сек
Каналы : 6 каналов
Расположение каналов : Front: L C R, Side: L R, LFE
Частота : 48,0 КГц
Битовая глубина : 16 бит
Метод сжатия : С потерями
Размер потока : 380 Мбайт (4%)
Заголовок : оригинал
Язык : Russian
Default : Да
Forced : Нет
Меню
00:00:00.000 : en:00:00:00.000
00:04:33.315 : en:00:04:33.315
00:09:04.335 : en:00:09:04.335
00:13:34.105 : en:00:13:34.105
00:18:46.292 : en:00:18:46.292
00:22:49.577 : en:00:22:49.577
00:29:43.824 : en:00:29:43.824
00:35:33.298 : en:00:35:33.298
00:41:15.556 : en:00:41:15.556
00:46:40.923 : en:00:46:40.923
00:49:47.443 : en:00:49:47.443
00:58:23.375 : en:00:58:23.375
01:04:45.256 : en:01:04:45.256
01:09:20.782 : en:01:09:20.782
01:14:05.816 : en:01:14:05.816
01:19:35.938 : en:01:19:35.938
Остальные раздачи этого фильма (2)
Благодарности релизеру (0)

Торрент:

Статус:

Размер:

Зарегистрирован   [ 2012-04-02 12:14 ]

© закрыто правообладателем

9.44 GB

 
 Мнение о фильме (15)





Отпишитесь как 3Д пожалуйста
 

всё норм 3D есть хорошее с вылетами. а вот сюжет полное Г (извеняюсь)
 

Судя по скринам стереобаза не велика, то есть фильм покажется плосковат.
А жаль, от наших ожидал большего, наверное боязнь ляпов сделала свое дело. Меньше база, меньше видно косяки.
 

Первоапрельская шутка, оценка на кинопоиске 7.14!?
 

да уж. фильм отвратительный. геи и душевнобольные походу сошли с ума.
 

А что, там реально Жан Клод снимался? Хотя бы знать кто пародировал.
 

да уж. фильм отвратительный. геи и душевнобольные походу сошли с ума.
А "Гитлер капут" такая же фигня- на раз под ПИВО. За раздачу Спасибо!
 

ну не смешно, совсем... шутки похоже петросян и дубовицкая придумывали...
 

Муть голубая! Жалко время, потраченное на просмотр.......
 

Народ, вы мне скажите, что смешно а? А то что бы дебилом не выгядеть...
 

greem68
3Д гавнокино:)
elephant - спасибо!
 

Этот отстой еще и в 3д... ужас
 

да уж. фильм отвратительный. геи и душевнобольные походу сошли с ума.
Когда геи сходят с ума, они становятся натуралами! :D
А фильм действительно дерьмо...
 

АНТОН - СПАСИБО БОЛЬШОЕ !!!
 

Knopka888
пожалуйста, но предупреждаю фильм бред