Торренты   
 
 

 

Кот в сапогах 3D / Puss in Boots 3D (Крис Миллер / Chris Miller) [2011, BDrip, 720p, Anaglyph, red'cyan (RAV)]

Рейтинг 3D:
51 голосов
8.6
Рейтинг фильма:
50 голосов
8.5
 
Вы должны быть авторизированы,
чтобы ставить оценки


Кот в сапогах 3D / Puss in Boots 3D
Год выпуска: 2011
Страна: США
Студия: DreamWorks Animation
Жанр: Мультфильм, Приключения, Комедия, Семейный
Продолжительность: 01:30:14
Перевод: Профессиональный (дублированный)
Русские субтитры: нет
Режиссер на русском: Крис Миллер
Режиссер на английском: Chris Miller
Роли озвучивали:
Кот в сапогах - Всеволод Кузнецов / Антонио Бандерас
Киса-Мягколапка - Татьяна Шитова / Сальма Хайек
Шалтай-Болтай - Диомид Виноградов / Зак Галифианакис
Джек - Владимир Зайцев / Билли Боб Торнтон
Джилл - Марина Бакина / Эми Седарис
Имельда - Ирина Киреева / Констанс Мари
Описание: Мечи пересекутся и сердца будут разбиты в приключениях с одним из самых любимых персонажей из Шрэка — котом в сапогах. Это удалая поездка ранних лет кота в сапогах, когда он объединяется с умным Шалтай-Болтаем и сообразительной Кисой, чтобы украсть знаменитую Гусыню, несущую золотые яйца.

Качество: BDrip
Контейнер: MKV
Формат 3d: Anaglyph (RAV)
Цвета очков:

Порядок ракурсов: левый ракурс первый
Видео: AVC, 2560x720, 23.976 fps, 5 480 Kbps
Аудио: Русский / Дублированный, АС-3, 6 channels, 640 Kbps

MediaInfo

General
Format : Matroska
Format version : Version 2
File size : 3.94 GiB
Duration : 1h 30mn
Overall bit rate : 6 244 Kbps
Encoded date : UTC 2012-04-02 17:04:01
Writing application : mkvmerge v4.4.0 ('Die Wiederkehr') сборка от Oct 31 2010 21:52:48
Writing library : libebml v1.0.0 + libmatroska v1.0.0
Video
ID : 1
Format : AVC
Format/Info : Advanced Video Codec
Format profile : High@L4.0
Format settings, CABAC : Yes
Format settings, ReFrames : 4 frames
Codec ID : V_MPEG4/ISO/AVC
Duration : 1h 30mn
Bit rate : 5 480 Kbps
Width : 2 560 pixels
Height : 720 pixels
Display aspect ratio : 3.556
Frame rate : 23.976 fps
Color space : YUV
Chroma subsampling : 4:2:0
Bit depth : 8 bits
Scan type : Progressive
Bits/(Pixel*Frame) : 0.124
Stream size : 3.45 GiB (88%)
Title : RAV-anaglyph by Boss-Master
Writing library : x264 core 115 r1995 c1e60b9
Encoding settings : cabac=1 / ref=4 / deblock=1:-2:-2 / analyse=0x3:0x113 / me=umh / subme=9 / psy=1 / psy_rd=1.00:0.15 / mixed_ref=1 / me_range=16 / chroma_me=1 / trellis=2 / 8x8dct=1 / cqm=0 / deadzone=21,11 / fast_pskip=1 / chroma_qp_offset=-3 / threads=6 / sliced_threads=0 / nr=0 / decimate=1 / interlaced=0 / bluray_compat=0 / constrained_intra=0 / bframes=6 / b_pyramid=0 / b_adapt=2 / b_bias=0 / direct=3 / weightb=1 / open_gop=0 / weightp=2 / keyint=250 / keyint_min=23 / scenecut=40 / intra_refresh=0 / rc_lookahead=40 / rc=crf / mbtree=1 / crf=18.0 / qcomp=0.60 / qpmin=10 / qpmax=69 / qpstep=4 / ip_ratio=1.40 / aq=1:1.00
Language : Russian
Default : Yes
Forced : No
Audio
ID : 2
Format : AC-3
Format/Info : Audio Coding 3
Mode extension : CM (complete main)
Codec ID : A_AC3
Duration : 1h 30mn
Bit rate mode : Constant
Bit rate : 640 Kbps
Channel(s) : 6 channels
Channel positions : Front: L C R, Side: L R, LFE
Sampling rate : 48.0 KHz
Bit depth : 16 bits
Compression mode : Lossy
Stream size : 413 MiB (10%)
Language : Russian
Default : Yes
Forced : No

Скриншоты

Как смотреть (читать всем) !!!

Фильм записан в формате Анаглифная горизонтальная стереопара (для минимизации двоения/гхостинга)!!!
Для просмотра нужны анаглифные очки Red/Cyan (Красно/Синезеленые), компьютер и программа Stereoscopic Player (или подобная)
Открываем файл и выбираем входной формат Попеременная пара / Левый ракурс первый, соотношение сторон 16:9 (см. скриншот)

После открытия выбирайте Вид / Метод просмотра / Anaglyph / Color Anaglyph Red/Cyan (и только Color (полноцвет))

Описание формата RAV-анаглиф

Анаглиф - один из самых старых и самый ругаемый вариант 3Д.
Основные претензии к нему:
1) Искажение оттенков (ввиду цветового принципа деления ракурсов) и биение конфликтных цветов (мерцание цветов совпадающих с цветами стекол в противоположных стеклах)
2) гхостинг (двоение) (появляется ввиду некачественных цветофильтров, некачественного видеоматериалла или искажения цветов при передачи видео с оригинала на экран)
Для решения этих проблем некоторые ученые и энтузиасты разрабатывали свои варианты отображения цветовых каналов, отличающиеся от обычного полноцветного анаглифа (у которого нет смещения оттенков, но есть самое большое биение конфликтных цветов)
При этом, зачастую, при получении более-менее приемлемых результатов по уменьшению биения конфликтных цветов - уменьшение гхостинга было незначительным + для уменьшения биения зачастую использовали уменьшение насыщенности (цветности) изображения.
Однако американский профессор Дюбуа разработал такой вариант анаглифа, который позволял избавиться от биения цветов практически не уменьшая цветности изображения, а также его вариант хорошо боролся с гхостингом. Это все получалось за счет сдвига всей цветовой гаммы в сторону синих и зеленых оттенков

в итоге - при использовании алгоритма Дюбуа для кодирования анаглифа - все оттенки красного и желтого превращаются соответственно в оттенки коричнево-зеленого и светло-зеленого. Это очень сильно влияет на отображение людей - кожа становится зеленая.
Для решения этой проблемы и был разработан RAV-anaglyph, который отличается от Дюбуа лишь тем, что позволяет отображать красные и желтые оттенки более похожими на красный и желтый (но для уменьшения биения - они делаются не такими насыщенными как в оригинале (полноцветной стереопаре))
Все остальные оттенки цвета обрабатываются по алгоритму Дюбуа. Примеры для сравнения смотрите ниже (Слева - RAV , Справа - Дюбуа)

Теперь перейдем к гостям (гхостингу): Есть как минимум 3 возможные причины их появления в анаглифе:
1) Недостаточно темные цветофильтры очков
2) Некачественная цветопередача в исходном фильме
3) Искажение цветов техникой при воспроизведении
Обычно все три причины могут присутствовать в большей или меньшей степени.
Устранение 1-ой причины - замена очков на качественные или использование нескольких некачественных вместе (суммирование цветофильтров - подходит только для картонных очков)
Устранение 3-ей причины - использование цифровых (DVI, HDMI или на худой конец VGA кабелей при подключении к ТВ, с монитором 3-ей проблемы не бывает)
Устранение 2-ой причины - правильная кодировка фильма в анаглиф или создание анаглифа налету (Stereoscopic Player и т.п.).
Основным форматом используемым для создания HD-рипов является формат MPEG4, т.к. только он позволяет создавать HD рипы приемлемого качества и одновременно приемлемого размера. Однако все кодеки MPEG4 используют схему 4:2:0 (YV12) которая очень плохо отображается на готовом анаглифе - появляются гости (см. на скриншот Дюбуа в красно/синезеленых очках)

видите темные контуры вокруг пингвинов - это контуры из противоположных ракурсов и это не косяк дюбуа, а косяк использования цветового простраства YV12 (4:2:0) вот тот же скриншот Дюбуа - но в пространстве RGB (4:4:4)

как говориться - теперь почувствуйте разницу.

Но не все так печально - есть вариант добиться отсутствия "гостей" и при этом кодировать кодеком x264 - это разделять каналы в виде стереопары, а потом налету их соединять в одну картинку - этот вариант можно обозвать - АНАГЛИФНАЯ СТЕРЕОПАРА (красный канал - слева / синезеленый - справа).
Предвижу вопрос - почему не делать RAV-anaglyph налету - потому, что в отличие от Дюбуа и других алгоритмов кодирования анаглифа (color, halfcolor, , true color, optimized)- RAV-anaglyph при работе не применяет одну и ту же матрицу ко всем пикселям, а в зависимости от оттенка, яркости и насыщенности пикселя выбирает требуемый результирующий оттенок, яркость и насыщенность. В реальном времени на Core 2 QUAD скросоть не поднимается выше 3 кадров в секунду, так что на данный момент можно только кодировать. (может в будущем смогу увеличить скорость, тогда сделаю налету)
Остальные раздачи этого фильма (5)
Благодарности релизеру (2)

Торрент:

Статус:

Размер:

Зарегистрирован   [ 2012-04-03 20:10 ]

проверено

3.94 GB