Торренты   
 
 


Фантом 3D / The Darkest Hour 3D (Крис Горак) [2011г, BDRip, 1080p, Anamorph SideBySide]

Рейтинг 3D:
8 голосов
4.9
Рейтинг фильма:
8 голосов
5.4
 
Вы должны быть авторизированы,
чтобы ставить оценки


Фантом 3D / The Darkest Hour 3D (2011)

Год выпуска: 2011
Страна: США, Россия
Жанр: фантастика, триллер
Продолжительность: 01:28:58
Режиссер: Крис Горак
В ролях: Эмиль Хирш, Оливия Тирлби, Макс Мингелла, Рэйчел Тейлор, Йоэль Чиннаман, Вероника Вернадская, Дато Бахтадзе, Гоша Куценко, Николай Ефремов, Артур Смольянинов
Описание: Фильм расскажет о американской туристке, оказавшейся вместе со своими согражданами в Москве в момент нападения инопланетян на столицу России. В итоге пятеро молодых людей вынуждены будут сражаться, чтобы выжить после атаки пришельцев.
Доп. информация: Перевод: Дублированный [звук с CAMRip]
Формат 3d: Anamorph SideBySide
Порядок ракурсов: Параллельная пара
Качество: BDrip
Контейнер: MKV
Видео кодек: x264
Аудио кодек: AC3
Видео: AVC, 1920x1080, 23.976 кадр/сек, 9,3 Мбит/сек
Аудио: AC3, 6 каналов, 640 Кбит/сек, 48,0 КГц

Скриншоты




MI

Format : Matroska
Format version : Version 2
File size : 6.42 GiB
Duration : 1h 28mn
Overall bit rate : 10.3 Mbps
Movie name : The Darkest Hour (2011) 3D Half-SBS
Encoded date : UTC 2012-04-03 22:47:52
Writing application : mkvmerge v4.0.0 ('The Stars were mine') сборка от Jun 6 2010 16:18:42
Writing library : libebml v1.0.0 + libmatroska v1.0.0
Video
ID : 1
Format : AVC
Format/Info : Advanced Video Codec
Format profile : High@L4.1
Format settings, CABAC : Yes
Format settings, ReFrames : 2 frames
Codec ID : V_MPEG4/ISO/AVC
Duration : 1h 28mn
Bit rate : 9 300 Kbps
Width : 1 920 pixels
Height : 1 080 pixels
Display aspect ratio : 16:9
Frame rate : 23.976 fps
Color space : YUV
Chroma subsampling : 4:2:0
Bit depth : 8 bits
Scan type : Progressive
Bits/(Pixel*Frame) : 0.187
Stream size : 5.78 GiB (90%)
Writing library : x264 core
Default : No
Forced : No
Color primaries : BT.709-5, BT.1361, IEC 61966-2-4, SMPTE RP177
Transfer characteristics : BT.709-5, BT.1361
Matrix coefficients : BT.709-5, BT.1361, IEC 61966-2-4 709, SMPTE RP177
Audio #1
ID : 2
Format : AC-3
Format/Info : Audio Coding 3
Mode extension : CM (complete main)
Codec ID : A_AC3
Duration : 1h 28mn
Bit rate mode : Constant
Bit rate : 192 Kbps
Channel(s) : 2 channels
Channel positions : Front: L R
Sampling rate : 48.0 KHz
Bit depth : 16 bits
Compression mode : Lossy
Stream size : 122 MiB (2%)
Default : Yes
Forced : No
Audio #2
ID : 3
Format : AC-3
Format/Info : Audio Coding 3
Mode extension : CM (complete main)
Codec ID : A_AC3
Duration : 1h 28mn
Bit rate mode : Constant
Bit rate : 640 Kbps
Channel(s) : 6 channels
Channel positions : Front: L C R, Side: L R, LFE
Sampling rate : 48.0 KHz
Bit depth : 16 bits
Compression mode : Lossy
Stream size : 407 MiB (6%)
Language : English
Default : No
Forced : No
© MoRo
Благодарности релизеру (2)

Торрент:

Статус:

Размер:

Зарегистрирован   [ 2012-04-04 15:00 ]

T временная

6.42 GB