Торренты   
 
 


Фантом / The Darkest Hour [2011 г., BDRip, 1080p, Anamorph OverUnder]

Рейтинг 3D:
21 голосов
6.2
Рейтинг фильма:
23 голосов
4.6
 
Вы должны быть авторизированы,
чтобы ставить оценки


Фантом
The Darkest Hour

Год выпуска: 2011
Страна: США, Россия
Жанр: фантастика, триллер
Продолжительность: 01:28:56
Перевод: Профессиональный (полное дублирование)-Режиссер:
Крис Горак
Сценарий: Джон Спэйтс, Лесли Боэм, М.Т. Ахерн
Продюсер: Тимур Бекмамбетов, Том Джейкобсон, Стивен А. Маринаццио II
Оператор: Скотт Кеван
Композитор: Тайлер Бейтс
Художник: Валерий Викторов, Рики Эйрс, Варя Авдюшко
Монтаж: Присцилла Недд-Френдли, Фернандо Вильена, Дуби Уайт
В ролях:
Эмиль Хирш, Оливия Тирлби, Макс Мингелла, Рэйчел Тейлор, Юэль Киннаман, Вероника Вернадская, Дато Бахтадзе, Гоша Куценко, Николай Ефремов, Артур Смольянинов, Петр Федоров
Роли дублировали:
Евгений Вальц, Татьяна Шитова, Александр Гаврилин, Пётр Иващенко, Борис Быстров-Описание:
Фильм расскажет про четырех американских туристов, оказавшихся в Москве в момент нападения на нее инопланетян.-Проверено на встроенном плеере ТВ LG 42LW4500
-Качество: BDrip
Контейнер: MKV
Формат 3D: Anamorph OverUnder / Вертикальная анаморфная стереопара
Видео: AVC, 1920x1080, 23.976 кадр/сек, 9,2 Мбит/сек
Аудио 1: русский; AC3, 5.1, 384 Кбит/сек, 48,0 КГц
Аудио 2: украинский; AC3, 5.1, 384 Кбит/сек, 48,0 КГц
Аудио 3: английский; AC3, 5.1, 640 Кбит/сек, 48,0 КГц
Субтитры: русские, английские (отдельно на Narod.Ru)

СКРИНШОТЫ

MI

Код:
Общее
Уникальный идентификатор                 : 242919147503596270486884123350647568839 (0xB6C086A985F40BEA907505B0CD91F9C7)
Полное имя                               : D:\3D-RuGroup\Фильмы\TheDarkestHour.3D.2011.BD3DRip.Half.OU.x264.AC3.Rus.Ukr.Eng.mkv
Формат                                   : Matroska
Версия формата                           : Version 2
Размер файла                             : 6,73 Гбайт
Продолжительность                        : 1 ч. 29 м.
Общий поток                              : 10,8 Мбит/сек
Название фильма                          : rip  by itsamna aka elephant aka AnTo}{@
Дата кодирования                         : UTC 2012-04-18 19:51:27
Программа кодирования                    : mkvmerge v3.4.0 ('Rapunzel') сборка от May 15 2010 09:38:20
Библиотека кодирования                   : libebml v0.8.0 + libmatroska v0.9.0
Видео
Идентификатор                            : 1
Формат                                   : AVC
Формат/Информация                        : Advanced Video Codec
Профиль формата                          : High@L4.0
Параметр CABAC формата                   : Да
Параметр ReFrames формата                : 4 кадра
Идентификатор кодека                     : V_MPEG4/ISO/AVC
Продолжительность                        : 1 ч. 29 м.
Битрейт                                  : 9173 Кбит/сек
Ширина                                   : 1920 пикселей
Высота                                   : 1080 пикселей
Соотношение сторон                       : 16:9
Частота кадров                           : 23,976 кадра/сек
Цветовое пространство                    : YUV
Субдискретизация насыщенности            : 4:2:0
Битовая глубина                          : 8 бит
Тип развёртки                            : Прогрессивная
Бит/(Пиксели*Кадры)                      : 0.185
Размер потока                            : 5,72 Гбайт (85%)
Заголовок                                : The Darkest Hour
Библиотека кодирования                   : x264 core 112 r1834 a51816a
Настройки программы                      : cabac=1 / ref=4 / deblock=1:-3:-3 / analyse=0x3:0x133 / me=umh / subme=9 / psy=1 / psy_rd=1.00:0.15 / mixed_ref=1 / me_range=16 / chroma_me=1 / trellis=2 / 8x8dct=1 / cqm=0 / deadzone=21,11 / fast_pskip=0 / chroma_qp_offset=-3 / threads=3 / sliced_threads=0 / nr=0 / decimate=1 / interlaced=0 / constrained_intra=0 / bframes=6 / b_pyramid=2 / b_adapt=2 / b_bias=0 / direct=3 / weightb=1 / open_gop=0 / weightp=2 / keyint=250 / keyint_min=23 / scenecut=40 / intra_refresh=0 / rc_lookahead=60 / rc=crf / mbtree=1 / crf=16.0 / qcomp=0.70 / qpmin=0 / qpmax=51 / qpstep=4 / ip_ratio=1.40 / aq=1:0.70
Язык                                     : English
Default                                  : Да
Forced                                   : Нет
Аудио #1
Идентификатор                            : 2
Формат                                   : AC-3
Формат/Информация                        : Audio Coding 3
Расширение режима                        : CM (complete main)
Идентификатор кодека                     : A_AC3
Продолжительность                        : 1 ч. 29 м.
Вид битрейта                             : Постоянный
Битрейт                                  : 384 Кбит/сек
Каналы                                   : 6 каналов
Расположение каналов                     : Front: L C R, Side: L R, LFE
Частота                                  : 48,0 КГц
Битовая глубина                          : 16 бит
Метод сжатия                             : С потерями
Размер потока                            : 245 Мбайт (4%)
Заголовок                                : Dub
Язык                                     : Russian
Default                                  : Да
Forced                                   : Нет
Аудио #2
Идентификатор                            : 3
Формат                                   : AC-3
Формат/Информация                        : Audio Coding 3
Расширение режима                        : CM (complete main)
Идентификатор кодека                     : A_AC3
Продолжительность                        : 1 ч. 29 м.
Вид битрейта                             : Постоянный
Битрейт                                  : 384 Кбит/сек
Каналы                                   : 6 каналов
Расположение каналов                     : Front: L C R, Side: L R, LFE
Частота                                  : 48,0 КГц
Битовая глубина                          : 16 бит
Метод сжатия                             : С потерями
Размер потока                            : 245 Мбайт (4%)
Заголовок                                : Dub
Язык                                     : Ukrainian
Default                                  : Нет
Forced                                   : Нет
Аудио #3
Идентификатор                            : 4
Формат                                   : AC-3
Формат/Информация                        : Audio Coding 3
Расширение режима                        : CM (complete main)
Идентификатор кодека                     : A_AC3
Продолжительность                        : 1 ч. 29 м.
Вид битрейта                             : Постоянный
Битрейт                                  : 640 Кбит/сек
Каналы                                   : 6 каналов
Расположение каналов                     : Front: L C R, Side: L R, LFE
Частота                                  : 48,0 КГц
Битовая глубина                          : 16 бит
Метод сжатия                             : С потерями
Размер потока                            : 409 Мбайт (6%)
Заголовок                                : original
Язык                                     : English
Default                                  : Нет
Forced                                   : Нет
Меню
00:00:00.000                             : :01
00:04:33.440                             : :02
00:08:06.277                             : :03
00:13:27.432                             : :04
00:19:10.566                             : :05
00:22:25.970                             : :06
00:28:52.022                             : :07
00:32:46.506                             : :08
00:38:33.478                             : :09
00:43:33.277                             : :10
00:47:28.387                             : :11
00:51:05.354                             : :12
00:56:38.562                             : :13
01:03:10.370                             : :14
01:06:27.775                             : :15
01:12:04.028                             : :16
01:18:10.144                             : :17
01:22:43.292                             : :18

19.04.2012 - Релиз обновлен. Добавлены русский и украинский дублированные переводы. Порядок ракурсов в рипе приведен к стандарту.
Желающие, скачайте заново торрент-файл.
Остальные раздачи этого фильма (3)
Благодарности релизеру (7)

Торрент:

Статус:

Размер:

Зарегистрирован   [ 2012-04-19 00:48 ]

проверено

6.73 GB