Торренты   
 
 

 

Кошки против собак: Месть Китти Галор / Cats & Dogs: The Revenge of Kitty Galore [2010, BDrip, half1080p, Anamorph OverUnder]

Рейтинг 3D:
2 голосов
8.0
Рейтинг фильма:
1 голосов
8.0
 
Вы должны быть авторизированы,
чтобы ставить оценки


Кошки против собак: Месть Китти ГалорCats & Dogs: The Revenge of Kitty Galore
Год выпуска: 2010
Страна: США, Австралия (Warner Bros. Pictures, Village Roadshow Pictures)
Жанр: Боевик, Комедия, Семейный
Продолжительность: 01:22:08
Перевод: Русский профессиональный дублированный, Украинский профессиональный дублированный
Режиссер: Брэд Пейтон / Brad Peyton--Роли дублировали / Озвучивали:
Диггс - Пётр Иващенко / Джеймс Марсден
Бутч - Михаил Георгиу / Ник Нолти
Кэтрин - Татьяна Шитова / Кристина Эпплгейт
Симус - Диомид Виноградов / Кэт Уильямс
Китти Галор - Юлия Ромашина / Бетт Мидлер
Лу - Василий Дахненко / Нил Патрик Харрис
Мистер Тинклс - Виктор Бохон / Шон Хейс
Калико - Никита Прозоровский / Уоллес Шоун
Тэб Лазенби - Владимир Антоник / Роджер Мур
Пик - Андрей Казанцев / Джо Пантолиано
Сэм - Александр Новиков / Майкл Кларк Дункан
Шэйн - Василий Дахненко / Крис О’Доннелл
Чак - Дмитрий Курта / Джек МакБрайер--Описание: В старом как мир противостоянии кошек и собак одна съехавшая с катушек кошачья особа зашла слиш-ш-шком далеко.
Китти Галор, в прошлом агент шпионской организации МЯУС, вышла из подчинения и замыслила дьявольский план, чтобы не только прижать к когтю своих собачьих недругов, но и нанести поражение своим бывшим кошачьим соратникам и прибрать в свои загребущие лапы власть над миром. Столкнувшись с беспрецедентной угрозой, кошки и собаки вынуждены впервые в истории объединить силы, заключив весьма неожиданный союз ради собственного спасения и спасения нас, людей, в новом фильме «Кошки против собак: Месть Китти Галор» — 3D комедии, которая сочетает игровые съемки, ультрасовременную аниматронику и компьютерную анимацию.
Битва до последнего клочка шерсти начинается!-- Проверено на встроенном плейере ТВ Samsung UE-C7000--Формат 3d: Anamorph OverUnder
Качество: BDrip
Контейнер: MKV
Видео: AVC / 23,976 fps / 1920х1080p / 13.0 Mbps
Аудио#1: Русский / AC3 / 48 KHz / 5.1 ch / 640 Kbps
Аудио#2: Украинский / AC3 / 48 KHz / 5.1 ch / 640 Kbps
Аудио#3: Английский / AC3 / 48 KHz / 5.1 ch / 640 Kbps
Субтитры: внешние srt - Русские форсированные (включены по умолчанию), Русские полные, Английские

MediaInfo

General
UniqueID : 190816690247988338392280936500255676146 (0x8F8DF53001405607AE2B6798228E56F2)
Complete name : F:\Downloads\CatsAndDogs(3D)2010.halfOU(ash61)\CatsAndDogs(3D)2010.halfOU(ash61).mkv
Format : Matroska
File size : 8.71 GiB
Duration : 1h 22mn
Overall bit rate : 15.2 Mbps
Movie name : Cats & Dogs: The Revenge of Kitty Galore (3D) 2010 (ash61)
Encoded date : UTC 2012-04-04 14:45:28
Writing application : mkvmerge v3.4.0 ('Rapunzel') сборка от May 15 2010 09:38:20
Writing library : libebml v0.8.0 + libmatroska v0.9.0
Video
ID : 1
Format : AVC
Format/Info : Advanced Video Codec
Format profile : High@L4.1
Format settings, CABAC : Yes
Format settings, ReFrames : 4 frames
Format settings, GOP : M=1, N=16
Codec ID : V_MPEG4/ISO/AVC
Duration : 1h 22mn
Bit rate : 13.0 Mbps
Width : 1 920 pixels
Height : 1 080 pixels
Display aspect ratio : 16:9
Frame rate : 23.976 fps
Color space : YUV
Chroma subsampling : 4:2:0
Bit depth : 8 bits
Scan type : Progressive
Bits/(Pixel*Frame) : 0.261
Stream size : 7.44 GiB (85%)
Title : BDrip by ash61
Writing library : x264 core 119 r2106 07efeb4
Encoding settings : cabac=1 / ref=4 / deblock=1:-3:-3 / analyse=0x3:0x113 / me=umh / subme=9 / psy=1 / psy_rd=1.00:0.15 / mixed_ref=1 / me_range=16 / chroma_me=1 / trellis=2 / 8x8dct=1 / cqm=0 / deadzone=21,11 / fast_pskip=1 / chroma_qp_offset=-3 / threads=3 / sliced_threads=0 / nr=0 / decimate=1 / interlaced=0 / bluray_compat=0 / constrained_intra=0 / bframes=6 / b_pyramid=2 / b_adapt=2 / b_bias=0 / direct=3 / weightb=1 / open_gop=0 / weightp=2 / keyint=250 / keyint_min=23 / scenecut=40 / intra_refresh=0 / rc_lookahead=60 / rc=crf / mbtree=1 / crf=18.0 / qcomp=0.70 / qpmin=0 / qpmax=69 / qpstep=4 / vbv_maxrate=40000 / vbv_bufsize=40000 / crf_max=0.0 / nal_hrd=none / ip_ratio=1.40 / aq=1:0.70
Audio #1
ID : 2
Format : AC-3
Format/Info : Audio Coding 3
Mode extension : CM (complete main)
Codec ID : A_AC3
Duration : 1h 22mn
Bit rate mode : Constant
Bit rate : 640 Kbps
Channel(s) : 6 channels
Channel positions : Front: L C R, Side: L R, LFE
Sampling rate : 48.0 KHz
Bit depth : 16 bits
Compression mode : Lossy
Stream size : 376 MiB (4%)
Title : Дубляж
Language : Russian
Audio #2
ID : 3
Format : AC-3
Format/Info : Audio Coding 3
Mode extension : CM (complete main)
Codec ID : A_AC3
Duration : 1h 22mn
Bit rate mode : Constant
Bit rate : 640 Kbps
Channel(s) : 6 channels
Channel positions : Front: L C R, Side: L R, LFE
Sampling rate : 48.0 KHz
Bit depth : 16 bits
Compression mode : Lossy
Stream size : 376 MiB (4%)
Title : Дубляж
Language : Ukrainian
Audio #3
ID : 4
Format : AC-3
Format/Info : Audio Coding 3
Mode extension : CM (complete main)
Codec ID : A_AC3
Duration : 1h 22mn
Bit rate mode : Constant
Bit rate : 640 Kbps
Channel(s) : 6 channels
Channel positions : Front: L C R, Side: L R, LFE
Sampling rate : 48.0 KHz
Bit depth : 16 bits
Compression mode : Lossy
Stream size : 376 MiB (4%)
Language : English
Menu
00:00:00.000 : :1
00:09:00.123 : :2
00:20:00.408 : :3
00:29:48.787 : :4
00:39:08.805 : :5
00:49:21.292 : :6
00:58:28.088 : :7
01:04:54.641 : :8
01:12:44.944 : :9
01:16:25.247 : :10

Скриншоты

Благодарности релизеру (5)

Торрент:

Статус:

Размер:

Зарегистрирован   [ 2012-04-04 22:45 ]

проверено

8.71 GB