Торренты   
 
 

 

Государственный Эрмитаж / The State Hermitage Museum [3D] (Екатерина Шахунова) [2011 г., Anamorph SideBySide]

Рейтинг 3D:
5 голосов
7.0
Рейтинг фильма:
6 голосов
7.3
 
Вы должны быть авторизированы,
чтобы ставить оценки


Государственный Эрмитаж / The State Hermitage Museum [3D]
Год выпуска: 2011
Страна: Россия
Жанр: документальный
Продолжительность: 00:41:49
Перевод: Не требуется
Режиссер: Екатерина Шахунова
В ролях: Текст читает: Иван Краско
Описание: Самый полный фильм о крупнейшем в России музее - Государственном Эрмитаже. Вы сможете насладиться его знаменитыми шедеврами и изумительными интерьерами великолепных дворцов; узнаете, как возник музейный комплекс. Познакомитесь с филиалами музея - Зимним Дворцом Петра I, Меншиковским дворцом, с экспозициями Генерального штаба и новым фондохранилищем Эрмитажа. Настоящей жемчужиной фильма стали уникальные кадры, снятые на крыше Эрмитажа в белую ночь.
Доп. информация: Проверено на встроенном плейере LG575s
Формат 3d: Anamorph SideBySide
Качество: BDrip
Видео: 1920x1080p (16:9), 23,976 fps, AVC MPEG-4 (x264), High@L4.1, 7993Kb/s
Аудио#1: русский AC3,640Kb/s, 6 каналов, 48,0 КГц
Аудио#2: английский АС3, 640Kb/s, 6 каналов, 48,0 КГц

Скриншоты






MI

Общее
Уникальный идентификатор : 219393646375227455329466311655632100313 (0xA50DADE7AB36FC7C861915A0D5775BD9)
Полное имя : D:\3DDD\Государственный Эрмитаж 3D Half SBS(Palych).mkv
Формат : Matroska
Версия формата : Version 2
Размер файла : 2,34 Гбайт
Продолжительность : 41 м.
Общий поток : 7993 Кбит/сек
Дата кодирования : UTC 2012-04-05 06:26:50
Программа кодирования : mkvmerge v3.4.0 ('Rapunzel') сборка от May 15 2010 09:38:20
Библиотека кодирования : libebml v0.8.0 + libmatroska v0.9.0
Видео
Идентификатор : 1
Формат : AVC
Формат/Информация : Advanced Video Codec
Профиль формата : High@L4.1
Параметр CABAC формата : Да
Параметр ReFrames формата : 4 кадра
Идентификатор кодека : V_MPEG4/ISO/AVC
Продолжительность : 41 м.
Битрейт : 6554 Кбит/сек
Ширина : 1920 пикселей
Высота : 1080 пикселей
Соотношение сторон : 16:9
Частота кадров : 23,976 кадра/сек
Цветовое пространство : YUV
Субдискретизация насыщенности : 4:2:0
Битовая глубина : 8 бит
Тип развёртки : Прогрессивная
Бит/(Пиксели*Кадры) : 0.132
Размер потока : 1,91 Гбайт (82%)
Библиотека кодирования : x264 core 120 r2164 da19765
Настройки программы : cabac=1 / ref=4 / deblock=1:-3:-3 / analyse=0x3:0x113 / me=umh / subme=9 / psy=1 / psy_rd=1.00:0.15 / mixed_ref=1 / me_range=16 / chroma_me=1 / trellis=2 / 8x8dct=1 / cqm=0 / deadzone=21,11 / fast_pskip=1 / chroma_qp_offset=-3 / threads=3 / sliced_threads=0 / nr=0 / decimate=1 / interlaced=0 / bluray_compat=0 / constrained_intra=0 / bframes=6 / b_pyramid=2 / b_adapt=2 / b_bias=0 / direct=3 / weightb=1 / open_gop=0 / weightp=2 / keyint=250 / keyint_min=23 / scenecut=40 / intra_refresh=0 / rc_lookahead=40 / rc=crf / mbtree=1 / crf=17.0 / qcomp=0.70 / qpmin=0 / qpmax=69 / qpstep=4 / vbv_maxrate=40000 / vbv_bufsize=40000 / crf_max=0.0 / nal_hrd=none / ip_ratio=1.40 / aq=1:0.80
Язык : English
Default : Нет
Forced : Нет
Аудио #1
Идентификатор : 2
Формат : AC-3
Формат/Информация : Audio Coding 3
Расширение режима : CM (complete main)
Идентификатор кодека : A_AC3
Продолжительность : 41 м.
Вид битрейта : Постоянный
Битрейт : 640 Кбит/сек
Каналы : 6 каналов
Расположение каналов : Front: L C R, Side: L R, LFE
Частота : 48,0 КГц
Битовая глубина : 16 бит
Метод сжатия : С потерями
Размер потока : 191 Мбайт (8%)
Язык : Russian
Default : Да
Forced : Нет
Аудио #2
Идентификатор : 3
Формат : AC-3
Формат/Информация : Audio Coding 3
Расширение режима : CM (complete main)
Идентификатор кодека : A_AC3
Продолжительность : 41 м.
Вид битрейта : Постоянный
Битрейт : 640 Кбит/сек
Каналы : 6 каналов
Расположение каналов : Front: L C R, Side: L R, LFE
Частота : 48,0 КГц
Битовая глубина : 16 бит
Метод сжатия : С потерями
Размер потока : 191 Мбайт (8%)
Язык : English
Default : Нет
Forced : Нет
Благодарности релизеру (13)

Торрент:

Статус:

Размер:

Зарегистрирован   [ 2012-04-06 09:44 ]

проверено

2.34 GB