Торренты   
 
 


Ржевский против Наполеона 3D (Марюс Вайсберг) [2012 г., Anamorph OverUnder]

Рейтинг 3D:
Пока никто не голосовал
Рейтинг фильма:
Пока никто не голосовал
 
Вы должны быть авторизированы,
чтобы ставить оценки


Ржевский против Наполеона 3D
Год выпуска: 2012
Страна: Россия
Жанр: Комедия
Продолжительность: 01:23:08
Перевод: Не требуется
Режиссер: Марюс Вайсберг
В ролях: Павел Деревянко, Владимир Зеленский, Светлана Ходченкова, Михаил Ефремов, Марат Башаров, Евгений Кошевой, Жан-Клод Ван Дамм, Анна Семенович, Анфиса Чехова, Михаил Галустян
Описание: Чтобы развеять скуку, Наполеон Бонапарт затеял мировую войну. Не пропуская ни одной юбки, он оказывается со своей армией у ворот Первопрестольной. Русские полководцы решают внедрить к нему неприступную красавицу, la femme fatal, чтобы отвлечь узурпатора от захватнической деятельности. Только какая настоящая женщина устоит перед обаянием этого великого бабника? Ненастоящая!!! В смысле — переодетый мужчина! И такой мужчина есть — поручик Ржевский.
Формат 3d: Anamorph OverUnder
Видео: MPEG-4 AVC, 25.2 Мбит/с, 1920x804, 23.976 кадр/с

Скриншоты


MediaInfo

F:\ТОРРЕНТЫ\Загружено\Rjevskiy.protin.Napaleona.3D.2012.x264.BDRip.1080p.mkv
General
Unique ID : 183668178335970218700764204700010944039 (0x8A2D3456C22E929E8B1E895D9B861627)
Complete name : F:\ТОРРЕНТЫ\Загружено\Rjevskiy.protin.Napaleona.3D.2012.x264.BDRip.1080p.mkv
Format : Matroska
Format version : Version 2
File size : 16.2 GiB
Duration : 1h 23mn
Overall bit rate mode : Variable
Overall bit rate : 27.9 Mbps
Movie name : NAPOLEON_3D_BLUEBIRD.Title3.Bluray3DRip
Encoded date : UTC 2012-03-31 14:36:15
Writing application : mkvmerge v3.4.0 ('Rapunzel') сборка от May 15 2010 09:38:20
Writing library : libebml v0.8.0 + libmatroska v0.9.0
Video #1
ID : 1
Format : AVC
Format/Info : Advanced Video Codec
Format profile : High@L5.1
Format settings, CABAC : Yes
Format settings, ReFrames : 2 frames
Codec ID : V_MPEG4/ISO/AVC
Duration : 1h 23mn
Bit rate : 25.1 Mbps
Width : 1 920 pixels
Height : 804 pixels
Display aspect ratio : 2.40:1
Frame rate : 23.976 fps
Color space : YUV
Chroma subsampling : 4:2:0
Bit depth : 8 bits
Scan type : Progressive
Bits/(Pixel*Frame) : 0.678
Stream size : 14.6 GiB (90%)
Title : АСАВ
Writing library : x264 core
Default : Yes
Forced : No
Color primaries : BT.709-5, BT.1361, IEC 61966-2-4, SMPTE RP177
Transfer characteristics : BT.709-5, BT.1361
Matrix coefficients : BT.709-5, BT.1361, IEC 61966-2-4 709, SMPTE RP177
Audio #2
ID : 2
Format : AC-3
Format/Info : Audio Coding 3
Mode extension : CM (complete main)
Codec ID : A_AC3
Duration : 1h 23mn
Bit rate mode : Constant
Bit rate : 640 Kbps
Channel(s) : 6 channels
Channel positions : Front: L C R, Side: L R, LFE
Sampling rate : 48.0 KHz
Bit depth : 16 bits
Compression mode : Lossy
Stream size : 381 MiB (2%)
Title : АСАВ
Language : Russian
Default : No
Forced : No
Audio #3
ID : 3
Format : DTS
Format/Info : Digital Theater Systems
Format profile : MA / Core
Codec ID : A_DTS
Duration : 1h 23mn
Bit rate mode : Variable
Bit rate : 1 561 Kbps / 1 510 Kbps
Channel(s) : 6 channels
Channel positions : Front: L C R, Side: L R, LFE
Sampling rate : 48.0 KHz
Bit depth : 16 bits
Compression mode : Lossless / Lossy
Language : Russian
Default : No
Forced : No
Благодарности релизеру (0)

Торрент:

Статус:

Размер:

Зарегистрирован   [ 2012-04-09 20:06 ]

© закрыто правообладателем

16.18 GB

 
Комментарии:





http://torrents3d.ru/viewtopic.php?t=2725 Есть уже, в два раза легче. Здесь битрейт раздут до 25, там 12. И черные полосы отрезать нельзя, ТВ аспект ратио не умеют менять в 3Д, будут вытянутые рожи, хоть и на весь экран без полос но пропорции не правильные, фильм не в 16:9 а уже.
 

фильм полное Гамно!
 

Топик был перенесен из форума Фильмы в форум Архив

Zagruzin