Торренты   
 
 

 

Летающие мечи врат дракона / Flying Swords of Dragon Gate (Цуй Харк) IMAX 3D [2011 г., Anamorph SideBySide]

Рейтинг 3D:
11 голосов
8.0
Рейтинг фильма:
7 голосов
7.3
 
Вы должны быть авторизированы,
чтобы ставить оценки


Летающие мечи врат дракона 3D / Flying Swords of Dragon Gate 3D
Год выпуска: 2011
Страна: КНР
Жанр: фэнтези, боевик, приключения
Продолжительность: 02:02:23
Перевод: Любительский DVO [Чип и Дейл],VO Монах
Русские субтитры:нет
Режиссер на русском: Харк Цуй
Режиссер на английском: Hark Tsui
В ролях:
Джет Ли, Фан Сю-Вонг, Чжоу Сюнь, Чэнь Кунь, Луньмэй Квай, Ли Юйчунь
Описание:
Бывший командир дворцовой стражи императорского дворца Жао Хой-Ан (Джет Ли) ведет многолетнюю борьбу с корумпированными чиновниками, деятельность которых сделала его беглым преступником. Победа близка, но неожиданная опасность в лице зловещего Западного управления грозит жизни главного героя. Чтобы выжить, ему придется сразиться с лучшими из убийц императорской тайной полиции.--

-Качество: BDrip
Контейнер: MKV
Формат 3D: Half SideBySide /Горизонтальная анаморфная стереопара
Порядок ракурсов: левый ракурс первый
Видео кодек: h.264
Аудио кодек: AC3
Видео: AVC / 1920х1080p / 23,976 fps / 11,0 Mbps
Аудио 1 : Русский / AC3 / 48 KHz / 2.0 ch / 256 Kbps / двухголосый [Чип и Дейл]
Аудио 2 : Русский / AC3 / 48 KHz / 2.0 ch / 448 Kbps / одноголосый (Татуированный Монах)

Скриншоты

MediaInfo

Общее
Уникальный идентификатор : 178427808197608558287335209095810304787 (0x863BF224A96FFAE68DEC40FE5B1CCB13)
Полное имя : E:\кино\Flying Swords Of Dragon Gate.2011.1080p.3D.HSBS.H264. (marik05).mkv
Формат : Matroska
Версия формата : Version 2
Размер файла : 9,99 Гбайт
Продолжительность : 2 ч. 2 м.
Общий поток : 11,7 Мбит/сек
Название фильма : Flying Swords Of Dragon Gate.2011.1080p.3D.HSBS.H264. (marik05)
Дата кодирования : UTC 2012-04-09 17:40:28
Программа кодирования : mkvmerge v3.4.0 ('Rapunzel') сборка от May 15 2010 09:38:20
Библиотека кодирования : libebml v0.8.0 + libmatroska v0.9.0
Видео
Идентификатор : 1
Формат : AVC
Формат/Информация : Advanced Video Codec
Профиль формата : High@L4.1
Параметр CABAC формата : Да
Параметр ReFrames формата : 4 кадра
Идентификатор кодека : V_MPEG4/ISO/AVC
Продолжительность : 2 ч. 2 м.
Битрейт : 11,0 Мбит/сек
Ширина : 1920 пикселей
Высота : 1080 пикселей
Соотношение сторон : 16:9
Частота кадров : 23,976 кадра/сек
Цветовое пространство : YUV
Субдискретизация насыщенности : 4:2:0
Битовая глубина : 8 бит
Тип развёртки : Прогрессивная
Бит/(Пиксели*Кадры) : 0.221
Размер потока : 9,41 Гбайт (94%)
Библиотека кодирования : x264 core 120 r2120 0c7dab9
Настройки программы : cabac=1 / ref=4 / deblock=1:-3:-3 / analyse=0x3:0x113 / me=umh / subme=9 / psy=1 / psy_rd=1.00:0.15 / mixed_ref=1 / me_range=16 / chroma_me=1 / trellis=1 / 8x8dct=1 / cqm=0 / deadzone=21,11 / fast_pskip=1 / chroma_qp_offset=-3 / threads=18 / sliced_threads=0 / nr=0 / decimate=1 / interlaced=0 / bluray_compat=0 / constrained_intra=0 / bframes=3 / b_pyramid=2 / b_adapt=1 / b_bias=0 / direct=3 / weightb=1 / open_gop=0 / weightp=2 / keyint=250 / keyint_min=23 / scenecut=40 / intra_refresh=0 / rc_lookahead=40 / rc=crf / mbtree=1 / crf=17.0 / qcomp=0.60 / qpmin=10 / qpmax=69 / qpstep=4 / ip_ratio=1.40 / aq=1:1.00
Язык : English
Default : Нет
Forced : Нет
Аудио
Идентификатор : 2
Формат : AC-3
Формат/Информация : Audio Coding 3
Расширение режима : CM (complete main)
Идентификатор кодека : A_AC3
Продолжительность : 2 ч. 2 м.
Вид битрейта : Постоянный
Битрейт : 448 Кбит/сек
Каналы : 2 канала
Расположение каналов : Front: L R
Частота : 48,0 КГц
Битовая глубина : 16 бит
Метод сжатия : С потерями
Размер потока : 392 Мбайт (4%)
Заголовок : VO Монах (одноголосый)
Язык : Russian
Default : Да
Forced : Да
Меню
00:00:00.000 : en:00:00:00.000
00:09:24.063 : en:00:09:24.063
00:20:16.841 : en:00:20:16.841
00:28:38.675 : en:00:28:38.675
00:41:10.259 : en:00:41:10.259
00:50:54.009 : en:00:50:54.009
01:02:39.547 : en:01:02:39.547
01:11:18.441 : en:01:11:18.441
01:20:15.728 : en:01:20:15.728
01:31:08.963 : en:01:31:08.963
01:44:58.751 : en:01:44:58.751
01:53:41.023 : en:01:53:41.023
11.04.2012 - Релиз обновлён - добавлен двухголосый перевод [Чип и Дейл]закадровый.Перекачайте, пожалуйста, торрент-файл!
Благодарности релизеру (13)

Торрент:

Статус:

Размер:

Зарегистрирован   [ 2012-04-11 10:40 ]

проверено

10.21 GB