Торренты   
 
 


Рожденные на воле 3D / Born to Be Wild 3D (Дэвид Ликли) [2011 г., Anamorph OverUnder]

Рожденные на воле 3D / Born to Be Wild 3D
Год выпуска: 2011
Страна: США
Студия: Imax Filmed Entertainment
Жанр: документальный
Продолжительность: 00:40:49
Перевод: Отсутствует
Режиссер: Дэвид Ликли
В ролях: Морган Фриман, Бируте Галдикас, Дафна Шелдрик
Описание: Две удивительные и трогательные истории о том, как осиротевшие дикие животные растут, готовясь к взрослой жизни, при преданной поддержке неординарных людей. В тропических лесах Борнео знаменитый приматолог доктор Бирут Гальдикас занимается реабилитацией детёныша орангутангов, а на засушливых саваннах Кении зоолог Дэйм Дафна Шелдрик помогает слонёнку вернуться обратно в дикую природу.
Формат 3d: Anamorph OverUnder
Видео: AVC MPEG-4, 22.6 Mbps, 1920х1080 23.976 fps

Скриншоты



MediaInfo

F:\ТОРРЕНТЫ\Загружено\IMAX.Rojdennie.na.vole.3D.2011.x264.BDRip.1080p.mkv
General
Unique ID : 205867009319789855810680665837568167807 (0x9AE08B353C03A150B4B71E73CAC68F7F)
Complete name : F:\ТОРРЕНТЫ\Загружено\IMAX.Rojdennie.na.vole.3D.2011.x264.BDRip.1080p.mkv
Format : Matroska
Format version : Version 2
File size : 7.41 GiB
Duration : 40mn 48s
Overall bit rate mode : Variable
Overall bit rate : 26.0 Mbps
Movie name : BORN_TO_BE_WILD_3D.Title98.Bluray3DRip
Encoded date : UTC 2012-04-05 17:12:21
Writing application : mkvmerge v3.4.0 ('Rapunzel') сборка от May 15 2010 09:38:20
Writing library : libebml v0.8.0 + libmatroska v0.9.0
Video #1
ID : 1
Format : AVC
Format/Info : Advanced Video Codec
Format profile : High@L4.1
Format settings, CABAC : Yes
Format settings, ReFrames : 2 frames
Codec ID : V_MPEG4/ISO/AVC
Duration : 40mn 48s
Bit rate : 22.6 Mbps
Width : 1 920 pixels
Height : 1 080 pixels
Display aspect ratio : 16:9
Frame rate : 23.976 fps
Color space : YUV
Chroma subsampling : 4:2:0
Bit depth : 8 bits
Scan type : Progressive
Bits/(Pixel*Frame) : 0.455
Stream size : 6.45 GiB (87%)
Title : 3DRIP_by_3D-Kinozal.TV
Writing library : x264 core
Default : Yes
Forced : No
Color primaries : BT.709-5, BT.1361, IEC 61966-2-4, SMPTE RP177
Transfer characteristics : BT.709-5, BT.1361
Matrix coefficients : BT.709-5, BT.1361, IEC 61966-2-4 709, SMPTE RP177
Audio #2
ID : 2
Format : DTS
Format/Info : Digital Theater Systems
Format profile : MA / Core
Codec ID : A_DTS
Duration : 40mn 48s
Bit rate mode : Variable
Bit rate : 1 561 Kbps / 1 510 Kbps
Channel(s) : 6 channels
Channel positions : Front: L C R, Side: L R, LFE
Sampling rate : 48.0 KHz
Bit depth : 24 bits
Compression mode : Lossless / Lossy
Title : 3DRIP_by_3D-Kinozal.TV
Language : English
Default : Yes
Forced : No
Audio #3
ID : 3
Format : AC-3
Format/Info : Audio Coding 3
Mode extension : CM (complete main)
Codec ID : A_AC3
Duration : 40mn 48s
Bit rate mode : Constant
Bit rate : 640 Kbps
Channel(s) : 6 channels
Channel positions : Front: L C R, Side: L R, LFE
Sampling rate : 48.0 KHz
Bit depth : 16 bits
Compression mode : Lossy
Stream size : 187 MiB (2%)
Title : 3DRIP_by_3D-Kinozal.TV
Language : French
Default : No
Forced : No
Audio #4
ID : 4
Format : AC-3
Format/Info : Audio Coding 3
Mode extension : CM (complete main)
Codec ID : A_AC3
Duration : 40mn 48s
Bit rate mode : Constant
Bit rate : 640 Kbps
Channel(s) : 6 channels
Channel positions : Front: L C R, Side: L R, LFE
Sampling rate : 48.0 KHz
Bit depth : 16 bits
Compression mode : Lossy
Stream size : 187 MiB (2%)
Title : 3DRIP_by_3D-Kinozal.TV
Language : Spanish
Default : No
Forced : No
Комментарии:





Почему моя раздача не повышает мой рейтинг? У кого она тогда качается?
 

Почему моя раздача не повышает мой рейтинг? У кого она тогда качается?
MIM 6.5 48.04 GB 7.41 GB 798 KB/s -
Степаныч ® 0.2 1.82 GB - 530 KB/s
Вот он ответик!!!
 

LG32LW4500 USB Всё отлично.Спасибо за работу.Рождённые быть дикими!
 

Спасибо огромное за этот релиз, давно ждал! Остаюсь на раздаче.
 

Спасибо большое ;)
 

Спасибо!!!
 

Будет ли в 1080p 3Д с русским переводом? http://tracker.hdclub.com.ua/details.php?id=11219 уже есть перевод.
 

будет. завтра
 

TheJoker Ждем с нетерпением!
 

Поглощен в пользу http://torrents3d.ru/viewtopic.php?t=2807 с рус. переводом.
 

Топик был перенесен из форума IMAX Документалки в форум Архив

Zagruzin