Торренты   
 
 


Летающие мечи врат дракона 3D / Flying Swords of Dragon Gate 3D (Цуй Харк) IMAX 3D [2011 г., Anamorph OverUnder]

Рейтинг 3D:
9 голосов
5.6
Рейтинг фильма:
10 голосов
5.2
 
Вы должны быть авторизированы,
чтобы ставить оценки


Врата дракона 3D Long men fei jia 3D«Легенда оживает» Год выпуска: 2011
Страна: КНР
Жанр: фэнтези, боевик, приключения
Продолжительность: 02:02:23
Перевод: Профессиональный (дублированный)
Русские субтитры:нет
Режиссер: Харк Цуй / Hark Tsui
В ролях:
Джет Ли, Фан Сю-Вонг, Чжоу Сюнь, Чэнь Кунь, Луньмэй Квай, Ли Юйчунь
Описание:
Бывший командир дворцовой стражи императорского дворца Жао Хой-Ан (Джет Ли) ведет многолетнюю борьбу с корумпированными чиновниками, деятельность которых сделала его беглым преступником. Победа близка, но неожиданная опасность в лице зловещего Западного управления грозит жизни главного героя. Чтобы выжить, ему придется сразиться с лучшими из убийц императорской тайной полиции.-- Премьера: 15 декабря 2011 (21 февраля 2013)
Бюджет: $35 000 000
Кассовые сборы: $68 170 276
Релиз на DVD и Blu-Ray: 4 апреля 2013, «Флагман-Трейд»

. .
Проверено на встроенном плейере ТВ LG LW 650S
--Качество: BDrip
Контейнер: MKV
Формат 3D: Anamorph OverUnder / Вертикальная анаморфная стереопара
Видео кодек: h.264
Аудио кодек: AC3-Видео: AVC / 23,976 fps / 1920х1080p / 12,5 Mbps
Аудио 1 : Русский / AC3 / 48 KHz / 5.1 ch / 448 Kbps / Дубляж (BD CEE)
Аудио 2 : Русский / AC3 / 48 KHz / 2.0 ch / 256 Kbps / двухголосый [Чип и Дейл]
Аудио 3 : Русский / AC3 / 48 KHz / 2.0 ch / 448 Kbps / одноголосый (Татуированный Монах)

Скриншоты

MediaInfo

Общее
Уникальный идентификатор : 242266574265751990058965577911072659013 (0xB642D85147FC4D52A75028CC5ADB1645)
Полное имя : E:\кино\Flying Swords of Dragon Gate.2011.3D.1080p.Half.OU(marik05).mkv
Формат : Matroska
Версия формата : Version 2
Размер файла : 11,3 Гбайт
Продолжительность : 2 ч. 2 м.
Общий поток : 13,2 Мбит/сек
Название фильма : Flying.Swords.of.Dragon.Gate.2011.3D.1080p.Half.OU(marik05)
Дата кодирования : UTC 2012-04-15 12:30:05
Программа кодирования : mkvmerge v3.4.0 ('Rapunzel') сборка от May 15 2010 09:38:20
Библиотека кодирования : libebml v0.8.0 + libmatroska v0.9.0
Видео
Идентификатор : 1
Формат : AVC
Формат/Информация : Advanced Video Codec
Профиль формата : High@L4.1
Параметр CABAC формата : Да
Параметр ReFrames формата : 4 кадра
Идентификатор кодека : V_MPEG4/ISO/AVC
Продолжительность : 2 ч. 2 м.
Битрейт : 12,5 Мбит/сек
Ширина : 1920 пикселей
Высота : 1080 пикселей
Соотношение сторон : 16:9
Частота кадров : 23,976 кадра/сек
Цветовое пространство : YUV
Субдискретизация насыщенности : 4:2:0
Битовая глубина : 8 бит
Тип развёртки : Прогрессивная
Бит/(Пиксели*Кадры) : 0.251
Размер потока : 10,5 Гбайт (93%)
Библиотека кодирования : x264 core 120 r2164 da19765
Настройки программы : cabac=1 / ref=4 / deblock=1:-3:-3 / analyse=0x3:0x113 / me=tesa / subme=11 / psy=1 / psy_rd=0.90:0.15 / mixed_ref=1 / me_range=48 / chroma_me=1 / trellis=2 / 8x8dct=1 / cqm=0 / deadzone=21,11 / fast_pskip=0 / chroma_qp_offset=-3 / threads=12 / sliced_threads=0 / nr=0 / decimate=0 / interlaced=0 / bluray_compat=0 / constrained_intra=0 / bframes=7 / b_pyramid=2 / b_adapt=2 / b_bias=0 / direct=3 / weightb=1 / open_gop=0 / weightp=2 / keyint=250 / keyint_min=23 / scenecut=40 / intra_refresh=0 / rc_lookahead=120 / rc=2pass / mbtree=1 / bitrate=12500 / ratetol=1.0 / qcomp=0.70 / qpmin=0 / qpmax=69 / qpstep=4 / cplxblur=20.0 / qblur=0.5 / ip_ratio=1.40 / aq=2:0.80
Язык : Chinese
Default : Нет
Forced : Нет
Аудио #1
Идентификатор : 2
Формат : AC-3
Формат/Информация : Audio Coding 3
Расширение режима : CM (complete main)
Параметр Endianness формата : Big
Идентификатор кодека : A_AC3
Продолжительность : 2 ч. 2 м.
Вид битрейта : Постоянный
Битрейт : 256 Кбит/сек
Каналы : 2 канала
Расположение каналов : Front: L R
Частота : 48,0 КГц
Битовая глубина : 16 бит
Метод сжатия : С потерями
Размер потока : 224 Мбайт (2%)
Заголовок : двуголосый (любительский) Чип и Дейл
Язык : Russian
Default : Да
Forced : Да
Аудио #2
Идентификатор : 3
Формат : AC-3
Формат/Информация : Audio Coding 3
Расширение режима : CM (complete main)
Параметр Endianness формата : Big
Идентификатор кодека : A_AC3
Продолжительность : 2 ч. 2 м.
Вид битрейта : Постоянный
Битрейт : 448 Кбит/сек
Каналы : 2 канала
Расположение каналов : Front: L R
Частота : 48,0 КГц
Битовая глубина : 16 бит
Метод сжатия : С потерями
Задержка видео : 16 мс.
Размер потока : 392 Мбайт (3%)
Заголовок : одноголосый (авторский)одинокий монах
Язык : Russian
Default : Нет
Forced : Нет
Текст
Идентификатор : 4
Формат : UTF-8
Идентификатор кодека : S_TEXT/UTF8
Идентификатор кодека/Информация : UTF-8 Plain Text
Заголовок : eng
Язык : English
Default : Нет
Forced : Нет
Меню
00:00:00.000 : en:00:00:00.000
00:09:23.480 : en:00:09:23.480
00:20:15.631 : en:00:20:15.631
00:28:36.965 : en:00:28:36.965
00:41:07.799 : en:00:41:07.799
00:50:50.965 : en:00:50:50.965
01:02:35.794 : en:01:02:35.794
01:11:14.187 : en:01:11:14.187
01:20:10.931 : en:01:20:10.931
01:31:03.500 : en:01:31:03.500
01:44:52.453 : en:01:44:52.453
01:53:34.224 : en:01:53:34.224

17.04.2013 Релиз обновлен,добавлен русский дубляж.Желающие, скачайте заново торрент-файл.
Благодарности релизеру (15)

Торрент:

Статус:

Размер:

Зарегистрирован   [ 2013-04-17 23:56 ]

проверено

11.67 GB

 
 Мнение о фильме (8)





Вобщем посмотрел,чушь полнейшая.После 15 минут затошнило.Джет Ли разочаровал....
 

А где он был реально хорош?
Шут гороховый(лично моё мнение).
 

Поспотри - Дени цепной пёс
 

Ммммм... Голову сломал....
Этот фильм:
Летающие мечи врат дракона(Flying Swords of Dragon Gate)
и этот:
http://torrents3d.ru/viewtopic.php?t=3953
Врата дракона(Long men fei jia)
Это два разных фильма?
Год один , название разное. На кинопоиске летающие мечи ваще не нашёл.
 

IS_3, это один и тот же фильм. у нас он вышел под названием Врата Дракона, а в США под названием Flying Swords of Dragon Gate, оригинальное название Long men fei jia
ps уважаемые модераторы, не мешало бы "объединить" раздачи под спойлер "Остальные раздачи этого фильма", что бы таких вопросов не было
 

Или хотя бы постеры поменять местами в этих двух раздачах, а то как-то не по-китайски, а скорее по-русски получается.
 

По-моему фильм средний. И по 3D и по сюжету. Если не обращать внимания на довольно сильную "левитацию" в драках, а также "бесконечные" метательные орудия. Один раз посмотреть можно
 

СПАСИБО!!!