Торренты   
 
 

 

Трейлер №2 Прометей 3D/ Trailer №2 Prometheus 3D [2012 г., DCPrip, Anamorph OverUnder]

Рейтинг 3D:
5 голосов
8.1
Рейтинг фильма:
4 голосов
9.5
 
Вы должны быть авторизированы,
чтобы ставить оценки


Трейлер №2 Прометей 3D
Trailer №2 Prometheus 3D
--Год выпуска: 2012
Страна: США
Режиссёр: Ридли Скотт
Жанр: ужасы, фантастика, боевик
Продолжительность: 00:02:26--Описание: В поисках сакрального знания группа ученых отправляется в самые темные и неизведанные чертоги вселенной. Именно там, в отдаленных мирах, находясь на пределе своих умственных и физических возможностей, им предстоит вступить в безжалостную схватку за будущее всего человечества…
Дополнительная информация: Это второй трейлер, первый трейлер ЗДЕСЬ--Формат 3d: Anamorph OverUnder (левый ракурс верхний)
Качество: DCPrip
Контейнер: mkv
Видео: AVC / 1920х1080p / 23.976 fps / 5932 Kbps
Аудио: Русский / AC3 / 6 ch / 448 Kbps / 48 KHz--

MediaInfo:

Код:
General
Unique ID                        : 190156770794061743343202901326809370909 (0x8F0EDCA57AE9ACF697D8B1C05B49911D)
Complete name                    : L:\_3D\3D-Trailers\Trailer2_Prometheus(3D)HalfOU-abq.mkv
Format                           : Matroska
File size                        : 114 MiB
Duration                         : 2mn 26s
Overall bit rate                 : 6 510 Kbps
Encoded date                     : UTC 2012-04-14 07:55:11
Writing application              : mkvmerge v4.0.0 ('The Stars were mine') сборка от Jun  6 2010 16:18:42
Writing library                  : libebml v1.0.0 + libmatroska v1.0.0
Video
ID                               : 1
Format                           : AVC
Format/Info                      : Advanced Video Codec
Format profile                   : High@L4.1
Format settings, CABAC           : Yes
Format settings, ReFrames        : 4 frames
Codec ID                         : V_MPEG4/ISO/AVC
Duration                         : 2mn 26s
Bit rate                         : 5 932 Kbps
Width                            : 1 920 pixels
Height                           : 1 080 pixels
Display aspect ratio             : 16:9
Frame rate                       : 23.976 fps
Color space                      : YUV
Chroma subsampling               : 4:2:0
Bit depth                        : 8 bits
Scan type                        : Progressive
Bits/(Pixel*Frame)               : 0.119
Stream size                      : 104 MiB (91%)
Writing library                  : x264 core 116 r2074 2641b9e
Encoding settings                : cabac=1 / ref=4 / deblock=1:-3:-3 / analyse=0x3:0x113 / me=umh / subme=9 / psy=1 / psy_rd=1.00:0.15 / mixed_ref=1 / me_range=16 / chroma_me=1 / trellis=2 / 8x8dct=1 / cqm=0 / deadzone=21,11 / fast_pskip=1 / chroma_qp_offset=-3 / threads=6 / sliced_threads=0 / nr=0 / decimate=1 / interlaced=0 / bluray_compat=0 / constrained_intra=0 / bframes=6 / b_pyramid=2 / b_adapt=2 / b_bias=0 / direct=3 / weightb=1 / open_gop=0 / weightp=2 / keyint=250 / keyint_min=23 / scenecut=40 / intra_refresh=0 / rc_lookahead=60 / rc=crf / mbtree=1 / crf=18.0 / qcomp=0.60 / qpmin=0 / qpmax=69 / qpstep=4 / vbv_maxrate=40000 / vbv_bufsize=40000 / crf_max=0.0 / nal_hrd=none / ip_ratio=1.40 / aq=1:0.70
Language                         : English
Audio
ID                               : 2
Format                           : AC-3
Format/Info                      : Audio Coding 3
Mode extension                   : CM (complete main)
Codec ID                         : A_AC3
Duration                         : 2mn 26s
Bit rate mode                    : Constant
Bit rate                         : 448 Kbps
Channel(s)                       : 6 channels
Channel positions                : Front: L C R, Side: L R, LFE
Sampling rate                    : 48.0 KHz
Bit depth                        : 16 bits
Compression mode                 : Lossy
Stream size                      : 7.84 MiB (7%)
Language                         : Russian

Скриншоты

Благодарности релизеру (6)

Торрент:

Статус:

Размер:

Зарегистрирован   [ 2012-04-16 10:55 ]

проверено

114 MB