Торренты   
 
 


Ночь живых мертвецов 3D: Реанимация / Night of the Living Dead 3D: Re-Animation (Джефф Бродстрит / Jeff Broadstreet) [2012 г., Anamorph OverUnder]

Рейтинг 3D:
8 голосов
4.2
Рейтинг фильма:
8 голосов
3.8
 
Вы должны быть авторизированы,
чтобы ставить оценки


Ночь живых мертвецов 3D: Реанимация / Night of the Living Dead 3D: Re-Animation
Год выпуска: 2012
Страна: США
Жанр: Ужасы
Продолжительность: 01:32:09
Перевод: Любительский, одноголосый (V.O) (den904)
Режиссер на русском: Джефф Бродстрит
Режиссер на английском: Jeff Broadstreet
В ролях:
Эндрю Дивофф, Джеффри Комбс, Сара Ливинг, Робин Сидни, Адам Чэмберс, Скотт Томсон, Денис Дафф, Мелисса Бэйли, Ронда Олдрич, Марк Сайкс...
Описание:
Джеральд Товар заведует похоронной конторой, перешедшей к нему от отца. По наследству ему достался не только семейный бизнес, но и плоды тёмных отцовских делишек — несколько оживших трупов, которых Джеральд втайне от безалаберного персонала запер в крематории. Вынашивая на личных мертвецов далеко идущие планы, Джеральд решает посвятить в них своего проблемного братца Гарольда.--

--Качество: BDrip
Контейнер: MKV
Формат 3D: Anamorph OverUnder/Вертикальная анаморфная стереопара
Порядок ракурсов: левый ракурс первый
Видео кодек: h.264
Аудио кодек: AC3
Видео: AVC / 1920х1080p / 23,976 fps / 12,1 Мбит/сек
Аудио: Русский / AC3 / 48 KHz / 2.0 ch / 320Kbps / одноголосый (den904)

Скриншоты

MediaInfo

Общее
Уникальный идентификатор : 244801893051847561362393628971398938660 (0xB82B212F3E4009069AE38E237C914024)
Полное имя : E:\кино\Night of the Living Dead 3D. Re-Animation.2011.BDRip 1080p.Half.OU(marik05).mkv
Формат : Matroska
Версия формата : Version 2
Размер файла : 8,18 Гбайт
Продолжительность : 1 ч. 32 м.
Общий поток : 12,7 Мбит/сек
Название фильма : Night of the Living Dead 3D: Re-Animation.Half OU(marik05)
Дата кодирования : UTC 2012-04-17 07:54:25
Программа кодирования : mkvmerge v3.4.0 ('Rapunzel') сборка от May 15 2010 09:38:20
Библиотека кодирования : libebml v0.8.0 + libmatroska v0.9.0
Видео
Идентификатор : 1
Формат : AVC
Формат/Информация : Advanced Video Codec
Профиль формата : High@L4.1
Параметр CABAC формата : Да
Параметр ReFrames формата : 4 кадра
Идентификатор кодека : V_MPEG4/ISO/AVC
Продолжительность : 1 ч. 32 м.
Битрейт : 12,1 Мбит/сек
Ширина : 1920 пикселей
Высота : 1080 пикселей
Соотношение сторон : 16:9
Частота кадров : 23,976 кадра/сек
Цветовое пространство : YUV
Субдискретизация насыщенности : 4:2:0
Битовая глубина : 8 бит
Тип развёртки : Прогрессивная
Бит/(Пиксели*Кадры) : 0.244
Размер потока : 7,82 Гбайт (95%)
Библиотека кодирования : x264 core 120 r2164 da19765
Настройки программы : cabac=1 / ref=4 / deblock=1:-3:-3 / analyse=0x3:0x133 / me=umh / subme=9 / psy=1 / psy_rd=1.00:0.05 / mixed_ref=1 / me_range=16 / chroma_me=1 / trellis=2 / 8x8dct=1 / cqm=0 / deadzone=21,11 / fast_pskip=1 / chroma_qp_offset=-3 / threads=6 / sliced_threads=0 / nr=0 / decimate=1 / interlaced=0 / bluray_compat=0 / constrained_intra=0 / bframes=6 / b_pyramid=2 / b_adapt=2 / b_bias=0 / direct=3 / weightb=1 / open_gop=0 / weightp=2 / keyint=250 / keyint_min=23 / scenecut=40 / intra_refresh=0 / rc_lookahead=60 / rc=crf / mbtree=1 / crf=17.0 / qcomp=0.70 / qpmin=0 / qpmax=69 / qpstep=4 / vbv_maxrate=40000 / vbv_bufsize=40000 / crf_max=0.0 / nal_hrd=none / ip_ratio=1.40 / aq=1:0.80
Язык : English
Default : Да
Forced : Нет
Аудио
Идентификатор : 2
Формат : AC-3
Формат/Информация : Audio Coding 3
Расширение режима : CM (complete main)
Параметр Endianness формата : Big
Идентификатор кодека : A_AC3
Продолжительность : 1 ч. 32 м.
Вид битрейта : Постоянный
Битрейт : 320 Кбит/сек
Каналы : 2 канала
Расположение каналов : Front: L R
Частота : 48,0 КГц
Битовая глубина : 16 бит
Метод сжатия : С потерями
Размер потока : 211 Мбайт (3%)
Заголовок : любительский один голос
Язык : Russian
Default : Да
Forced : Да
Меню
00:00:00.000 : en:00:00:00.000
00:09:21.436 : en:00:09:21.436
00:22:30.975 : en:00:22:30.975
00:37:33.084 : en:00:37:33.084
00:48:50.177 : en:00:48:50.177
01:01:49.915 : en:01:01:49.915
01:12:19.585 : en:01:12:19.585
01:20:27.281 : en:01:20:27.281
01:32:00.598 : en:01:32:00.598
Благодарности релизеру (14)

Торрент:

Статус:

Размер:

Зарегистрирован   [ 2012-04-17 18:54 ]

проверено

8.18 GB

 
 Мнение о фильме (3)





Скачал посмотрел! Впечатления: 3D местами присутствует в моменты ярких вспышек фильм квадратит смотрел через комп! Цвета не естейственные доходило до того что у актеров были зеленые брови! Качество 3D хуже не видел ещё, сам фильм параша редкая смотреть скучно на фильм ужасов не тянет да и треш херовый мягко говоря! В общем жалею потраченого времени!
 

не ужасы, а полная фигня, руки бы поотрывать тем кто это снял, пожалуйста не выкладывайте такую туфту, чтобы люди зря своё время на него не тратили.
 

Не понравился,очень люблю ужастики,но этот полное га..о.