Торренты   
 
 


Другой мир: Пробуждение 3Д / Underworld: Awakening 3D (2012) [BDRip, Half OverUnder/Вертикальная анаморфная стерео (Манс Марлинд, Бьерн Стейн) [2012 г., Anamorph OverUnder]

Рейтинг 3D:
Пока никто не голосовал
Рейтинг фильма:
Пока никто не голосовал
 
Вы должны быть авторизированы,
чтобы ставить оценки


Другой мир: Пробуждение 3Д / Underworld: Awakening 3D (2012) [BDRip,1080p,Anamorph Half OverUnder/Вертикальная анаморфная стерео]

Год выпуска: 2012
Страна: США
Жанр: Ужасы, Фэнтези, Боевик
Продолжительность: 01:28:34
Перевод: Профессиональный (полное дублирование)
Режиссер: Манс Марлинд, Бьерн Стейн
В ролях: Кейт Бекинсейл, Стивен Ри, Майкл Или, Тео Джеймс, Индия Айли, Чарльз Дэнс, Кристен Холден-Рид, Сандрин Холт, Ричард Цетрон, Сэнни Ван Хетерен
Описание: Проснувшись после 12 лет пребывания в коме, Селин обнаруживает, что у нее есть четырнадцатилетняя дочь — гибрид вампира и ликана. Селин необходимо во что бы то ни стало помешать биотехнической корпорации БиоКом создать суперликанов.
Формат 3d: Anamorph OverUnder / Вертикальная анаморфная стереопара
Качество: BDrip
Контейнер: MKV
Видео кодек: x264
Аудио кодек: AC3
Видео: AVC,1920x1080. 23.976 кадр/сек, 9,96 Мбит/сек
Аудио#1: Русский AC3, 6 каналов, 640 Кбит/сек, 48 КГц
Аудио#2: Украинский AC3, 6 каналов, 640 Кбит/сек, 44,1 КГц
Аудио#3: Английский AC3, 6 каналов, 640 Кбит/сек, 44,1 КГц
Проверено на встроенном плеере TV LG 42LW4500

Скриншоты






MI

Общее
Уникальный идентификатор : 192152285340997713546880903854643878541 (0x908F2F1C11F6A6229D34E2B8ED3A1A8D)
Полное имя : Underworld_Awakening 3D.Half-OverUnder..mkv
Формат : Matroska
Версия формата : Version 2
Размер файла : 7,52 Гбайт
Продолжительность : 1 ч. 28 м.
Общий поток : 12,2 Мбит/сек
Название фильма : UNDERWORLD_AWAKENING_3D.Title1.Bluray3DRip
Дата кодирования : UTC 2012-04-18 17:17:56
Программа кодирования : mkvmerge v4.0.0 ('The Stars were mine') сборка от Jun 6 2010 16:18:42
Библиотека кодирования : libebml v1.0.0 + libmatroska v1.0.0
Видео
Идентификатор : 1
Формат : AVC
Формат/Информация : Advanced Video Codec
Профиль формата : High@L4.1
Параметр CABAC формата : Да
Параметр ReFrames формата : 2 кадра
Идентификатор кодека : V_MPEG4/ISO/AVC
Продолжительность : 1 ч. 28 м.
Битрейт : 9996 Кбит/сек
Ширина : 1920 пикселей
Высота : 1080 пикселей
Соотношение сторон : 16:9
Частота кадров : 23,976 кадра/сек
Цветовое пространство : YUV
Субдискретизация насыщенности : 4:2:0
Битовая глубина : 8 бит
Тип развёртки : Прогрессивная
Бит/(Пиксели*Кадры) : 0.201
Размер потока : 6,18 Гбайт (82%)
Библиотека кодирования : x264 core
Default : Да
Forced : Нет
Основные цвета : BT.709-5, BT.1361, IEC 61966-2-4, SMPTE RP177
Характеристики трансфера : BT.709-5, BT.1361
Коэффициенты матрицы : BT.709-5, BT.1361, IEC 61966-2-4 709, SMPTE RP177
Аудио #1
Идентификатор : 2
Формат : AC-3
Формат/Информация : Audio Coding 3
Расширение режима : CM (complete main)
Идентификатор кодека : A_AC3
Продолжительность : 1 ч. 28 м.
Вид битрейта : Постоянный
Битрейт : 640 Кбит/сек
Каналы : 6 каналов
Расположение каналов : Front: L C R, Side: L R, LFE
Частота : 48,0 КГц
Битовая глубина : 16 бит
Метод сжатия : С потерями
Размер потока : 405 Мбайт (5%)
Язык : Russian
Default : Да
Forced : Нет
Аудио #2
Идентификатор : 3
Формат : AC-3
Формат/Информация : Audio Coding 3
Расширение режима : CM (complete main)
Идентификатор кодека : A_AC3
Продолжительность : 1 ч. 28 м.
Вид битрейта : Постоянный
Битрейт : 640 Кбит/сек
Каналы : 6 каналов
Расположение каналов : Front: L C R, Side: L R, LFE
Частота : 44,1 КГц
Битовая глубина : 16 бит
Метод сжатия : С потерями
Размер потока : 405 Мбайт (5%)
Default : Нет
Forced : Нет
Аудио #3
Идентификатор : 4
Формат : AC-3
Формат/Информация : Audio Coding 3
Расширение режима : CM (complete main)
Идентификатор кодека : A_AC3
Продолжительность : 1 ч. 28 м.
Вид битрейта : Постоянный
Битрейт : 640 Кбит/сек
Каналы : 6 каналов
Расположение каналов : Front: L C R, Side: L R, LFE
Частота : 44,1 КГц
Битовая глубина : 16 бит
Метод сжатия : С потерями
Размер потока : 405 Мбайт (5%)
Default : Нет
Forced : Нет
Благодарности релизеру (0)

Торрент:

Статус:

Размер:

Зарегистрирован   [ 2012-04-20 10:21 ]

x закрыто

7.52 GB

 
Комментарии:





McSim, надо бы в оформлении перечислить все имеющиеся аудио дороги. Скрины надо сделать в png-формате. По jpeg'у невозможно определить качество.
Ну и для инфы пользователям - сделано ФАБом. Наверное, нужно уже просить релизёров указывать это в оформлении, имхо.
 

McSim, надо бы в оформлении перечислить все имеющиеся аудио дороги. Скрины надо сделать в png-формате. По jpeg'у невозможно определить качество.
исправил..
 

Спасибо за исправление, McSim, только теперь скрины в 1280х720. :)
И просто вопросик, вы перекодировали украинскую дорогу? Зачем? Если перекодируете, то частоту дискретизации лучше оставлять оригинальной - в данном случае 48,0 КГц (это же касается и английской дороги). Это просто к сведению на будущее (здесь уже дороги не надо переделывать).
 

Ну и как вам фильм? Как 3D?
 

Ну и как вам фильм? Как 3D?
фильм - очередное продолжение предыдущих частей, ничего нового я для себя не увидел.. это что касается сюжета, касательно эффектов - понравились, претензий нет, ну а 3D оцените сами при просмотре..
 

it has english language ?
 

Multilanguage, English language - present, see in discription another time
 

Топик был перенесен из форума Фильмы в форум Архив

Zagruzin