Торренты   
 
 

 

Глубокий Океан. Впечатление 3D / Deep Ocean. Experience 3D [2011 г., Anamorph OverUnder]

Рейтинг 3D:
1 голосов
9.0
Рейтинг фильма:
1 голосов
4.0
 
Вы должны быть авторизированы,
чтобы ставить оценки


Глубокий Океан. Впечатление 3D / Deep Ocean. Experience 3D
Год выпуска: 2011
Страна: Великобритания
Жанр: Документальный, видовой, релакс, океанография
Продолжительность: 2 x ~ 00:24:00
Перевод: Не требуется (только музыка)
Описание: Компьютерная анимация, отображающая аквариум с обитателями морских глубин. Фильм разделен на две части: с обитателями "сумеречной зоны" и "полуночной зоны".
Формат 3d: Anamorph OverUnder
Видео: MPEG-4 AVC, ~18.0 Мбит/с, 1920x1080, 23.976 кадр/с
Аудио:Английский (AC3, 6 ch, 640 Кбит/с), (DTS-HD MA, 6 ch, 3837 Кбит/с)

Скриншоты



MediaInfo

F:\ТОРРЕНТЫ\Загружено\Glubokiy.okean.Vpechatlenie.3D.x264.BDRip.1080p\Glubokiy.okean.Vpechatlenie.Polunochnaja.zona.3D.x264.BDRip.1080p.mkv
General
Unique ID : 222868265104491643395533779667594227777 (0xA7AADDD5AF93F5C1A73FC6BF5173B041)
Complete name : F:\ТОРРЕНТЫ\Загружено\Glubokiy.okean.Vpechatlenie.3D.x264.BDRip.1080p\Glubokiy.okean.Vpechatlenie.Polunochnaja.zona.3D.x264.BDRip.1080p.mkv
Format : Matroska
Format version : Version 2
File size : 3.93 GiB
Duration : 23mn 59s
Overall bit rate mode : Variable
Overall bit rate : 23.5 Mbps
Movie name : DEEP OCEAN EXPERIENCE.Title4.Bluray3DRip
Encoded date : UTC 2012-04-17 14:34:17
Writing application : mkvmerge v3.4.0 ('Rapunzel') сборка от May 15 2010 09:38:20
Writing library : libebml v0.8.0 + libmatroska v0.9.0
Video #1
ID : 1
Format : AVC
Format/Info : Advanced Video Codec
Format profile : High@L4.1
Format settings, CABAC : Yes
Format settings, ReFrames : 2 frames
Codec ID : V_MPEG4/ISO/AVC
Duration : 23mn 59s
Bit rate : 18.9 Mbps
Width : 1 920 pixels
Height : 1 080 pixels
Display aspect ratio : 16:9
Frame rate : 23.976 fps
Color space : YUV
Chroma subsampling : 4:2:0
Bit depth : 8 bits
Scan type : Progressive
Bits/(Pixel*Frame) : 0.380
Stream size : 3.17 GiB (81%)
Title : 3DRip_by_Kinozal.TV
Writing library : x264 core
Default : Yes
Forced : No
Color primaries : BT.709-5, BT.1361, IEC 61966-2-4, SMPTE RP177
Transfer characteristics : BT.709-5, BT.1361
Matrix coefficients : BT.709-5, BT.1361, IEC 61966-2-4 709, SMPTE RP177
Audio #2
ID : 2
Format : AC-3
Format/Info : Audio Coding 3
Mode extension : CM (complete main)
Codec ID : A_AC3
Duration : 23mn 59s
Bit rate mode : Constant
Bit rate : 640 Kbps
Channel(s) : 6 channels
Channel positions : Front: L C R, Side: L R, LFE
Sampling rate : 48.0 KHz
Bit depth : 16 bits
Compression mode : Lossy
Stream size : 110 MiB (3%)
Title : 3DRip_by_Kinozal.TV
Language : English
Default : Yes
Forced : No
Audio #3
ID : 3
Format : DTS
Format/Info : Digital Theater Systems
Format profile : MA / Core
Codec ID : A_DTS
Duration : 23mn 59s
Bit rate mode : Variable
Bit rate : 3 466 Kbps / 1 510 Kbps
Channel(s) : 6 channels
Channel positions : Front: L C R, Side: L R, LFE
Sampling rate : 48.0 KHz
Bit depth : 24 bits
Compression mode : Lossless / Lossy
Title : 3DRip_by_Kinozal.TV
Language : English
Default : No
Forced : No
__________________________________________________________________
F:\ТОРРЕНТЫ\Загружено\Glubokiy.okean.Vpechatlenie.3D.x264.BDRip.1080p\Glubokiy.okean.Vpechatlenie.Sumerochnaja.zona.3D.x264.BDRip.1080p.mkv
General
Unique ID : 186461803325353495718557848393996261891 (0x8C473CAF5DB813C6AAB97707DD835A03)
Complete name : F:\ТОРРЕНТЫ\Загружено\Glubokiy.okean.Vpechatlenie.3D.x264.BDRip.1080p\Glubokiy.okean.Vpechatlenie.Sumerochnaja.zona.3D.x264.BDRip.1080p.mkv
Format : Matroska
Format version : Version 2
File size : 3.73 GiB
Duration : 23mn 59s
Overall bit rate mode : Variable
Overall bit rate : 22.3 Mbps
Movie name : DEEP OCEAN EXPERIENCE.Title1.Bluray3DRip
Encoded date : UTC 2012-04-17 14:16:54
Writing application : mkvmerge v3.4.0 ('Rapunzel') сборка от May 15 2010 09:38:20
Writing library : libebml v0.8.0 + libmatroska v0.9.0
Video #1
ID : 1
Format : AVC
Format/Info : Advanced Video Codec
Format profile : High@L4.1
Format settings, CABAC : Yes
Format settings, ReFrames : 2 frames
Codec ID : V_MPEG4/ISO/AVC
Duration : 23mn 59s
Bit rate : 17.5 Mbps
Width : 1 920 pixels
Height : 1 080 pixels
Display aspect ratio : 16:9
Frame rate : 23.976 fps
Color space : YUV
Chroma subsampling : 4:2:0
Bit depth : 8 bits
Scan type : Progressive
Bits/(Pixel*Frame) : 0.352
Stream size : 2.93 GiB (79%)
Title : 3DRIP-by_Kinozal.TV
Writing library : x264 core
Default : Yes
Forced : No
Color primaries : BT.709-5, BT.1361, IEC 61966-2-4, SMPTE RP177
Transfer characteristics : BT.709-5, BT.1361
Matrix coefficients : BT.709-5, BT.1361, IEC 61966-2-4 709, SMPTE RP177
Audio #2
ID : 2
Format : AC-3
Format/Info : Audio Coding 3
Mode extension : CM (complete main)
Codec ID : A_AC3
Duration : 23mn 59s
Bit rate mode : Constant
Bit rate : 640 Kbps
Channel(s) : 6 channels
Channel positions : Front: L C R, Side: L R, LFE
Sampling rate : 48.0 KHz
Bit depth : 16 bits
Compression mode : Lossy
Stream size : 110 MiB (3%)
Title : 3DRIP-by_Kinozal.TV
Language : English
Default : Yes
Forced : No
Audio #3
ID : 3
Format : DTS
Format/Info : Digital Theater Systems
Format profile : MA / Core
Codec ID : A_DTS
Duration : 23mn 59s
Bit rate mode : Variable
Bit rate : 3 688 Kbps / 1 510 Kbps
Channel(s) : 6 channels
Channel positions : Front: L C R, Side: L R, LFE
Sampling rate : 48.0 KHz
Bit depth : 24 bits
Compression mode : Lossless / Lossy
Title : 3DRIP-by_Kinozal.TV
Language : English
Default : No
Forced : No
Благодарности релизеру (3)

Торрент:

Статус:

Размер:

Зарегистрирован   [ 2012-04-20 16:00 ]

* не проверено

7.66 GB