Торренты   
 
 

 

Panasonic Demo 3D 2012 [2012, BDrip, half1080p, Anamorph OverUnder]

Рейтинг 3D:
3 голосов
9.0
Рейтинг фильма:
3 голосов
8.3
 
Вы должны быть авторизированы,
чтобы ставить оценки


Panasonic Demo 3D 2012
Год выпуска: 2012
Страна: Япония
Жанр: Демо
Продолжительность: 00:17:27 + 00:20:40 + 00:16:00 + 00:07:35
Перевод: Отсутствует (практически не требуется)
Описание: Почти все 3Д ролики с последнего демо диска Панасоника (2Д ролики исключил). Объединены в четыре файла с разными параметрами (один ролик - одна глава).-Файл #1:
1. NASA Space Shuttle
2. 3D Painting
3. Polar Bear
4. Flowers
5. A Day in the City
6. Design for Passion
Видео: AVC / 23,976 fps / 1920х1080p / 12.9 Mbps
Аудио: AC3 / 48 KHz / 2 ch / 384 Kbps-Файл #2:
1. 009 Re: Cyborg
2. Hara-Kiri: Death of Samurai
3. Assignment SV
4. "Free" by Natalia Kills
5. The British Museum
6. Flowing in the Dark
Видео: AVC / 23,976 fps / 1920х1080p / 13.1 Mbps
Аудио: AC3 / 48 KHz / 5.1 ch / 640 Kbps-Файл #3:
1. Sarah Brightman for Eco Ideas
2. Sarah Brightman - Shall Be Done (v.2 - видео заставки)
3. Diadogei World Cup
4. Forest Tweet
5. Maharajas' Express
6. Ruturu Beautiful Life
Видео: AVC / 59,940 fps / 1280х720p / 9676 Kbps
Аудио: AC3 / 48 KHz / 2 ch / 384 Kbps-Файл #4:
1. Get Ready for London
2. Coming Soon "London 2012"
3. Italian Football Serie A
Видео: AVC / 59,940 fps / 1280х720p / 12.7 Mbps
Аудио: AC3 / 48 KHz / 5.1 ch / 640 Kbps--Проверено на встроенном плейере ТВ Samsung UE-C7000Формат 3d: Anamorph OverUnder
Качество: BDrip
Контейнер: MKV

MediaInfo файла #1

General
UniqueID : 195085747970216258393586641298223903523 (0x92C425FBD5010F5B8FE033AF0CF9B323)
Complete name : F:\Downloads\PanasonicVieraDemo(3D)2012.halfOU(ash61)\PanasonicVieraDemo(3D)2012.halfOU(ash61)-1080p2ch.mkv
Format : Matroska
File size : 1.65 GiB
Duration : 17mn 28s
Overall bit rate : 13.5 Mbps
Movie name : Panasonic Viera Demo 2012 (3D) (ash61)
Encoded date : UTC 2012-04-13 09:22:13
Writing application : mkvmerge v3.4.0 ('Rapunzel') сборка от May 15 2010 09:38:20
Writing library : libebml v0.8.0 + libmatroska v0.9.0
Video
ID : 1
Format : AVC
Format/Info : Advanced Video Codec
Format profile : High@L4.1
Format settings, CABAC : Yes
Format settings, ReFrames : 4 frames
Codec ID : V_MPEG4/ISO/AVC
Duration : 17mn 28s
Bit rate : 12.9 Mbps
Width : 1 920 pixels
Height : 1 080 pixels
Display aspect ratio : 16:9
Frame rate : 23.976 fps
Color space : YUV
Chroma subsampling : 4:2:0
Bit depth : 8 bits
Scan type : Progressive
Bits/(Pixel*Frame) : 0.259
Stream size : 1.57 GiB (95%)
Title : BDrip by ash61
Writing library : x264 core 119 r2106 07efeb4
Encoding settings : cabac=1 / ref=4 / deblock=1:-3:-3 / analyse=0x3:0x113 / me=umh / subme=9 / psy=1 / psy_rd=1.00:0.15 / mixed_ref=1 / me_range=16 / chroma_me=1 / trellis=2 / 8x8dct=1 / cqm=0 / deadzone=21,11 / fast_pskip=1 / chroma_qp_offset=-3 / threads=3 / sliced_threads=0 / nr=0 / decimate=1 / interlaced=0 / bluray_compat=0 / constrained_intra=0 / bframes=6 / b_pyramid=2 / b_adapt=2 / b_bias=0 / direct=3 / weightb=1 / open_gop=0 / weightp=2 / keyint=250 / keyint_min=23 / scenecut=40 / intra_refresh=0 / rc_lookahead=60 / rc=crf / mbtree=1 / crf=18.0 / qcomp=0.70 / qpmin=0 / qpmax=69 / qpstep=4 / vbv_maxrate=40000 / vbv_bufsize=40000 / crf_max=0.0 / nal_hrd=none / ip_ratio=1.40 / aq=1:0.70
Audio
ID : 2
Format : AC-3
Format/Info : Audio Coding 3
Mode extension : CM (complete main)
Codec ID : A_AC3
Duration : 17mn 28s
Bit rate mode : Constant
Bit rate : 384 Kbps
Channel(s) : 2 channels
Channel positions : Front: L R
Sampling rate : 48.0 KHz
Bit depth : 16 bits
Compression mode : Lossy
Stream size : 48.0 MiB (3%)
Language : English
Menu
00:00:00.000 : :NASA Space Shuttle
00:03:32.712 : :3D Painting
00:05:07.807 : :Polar Bear
00:08:35.431 : :Flowers
00:10:36.469 : :A Day in the City
00:14:34.206 : :Design for Passion

MediaInfo файла #2

General
UniqueID : 234820322551670184052126021729705789845 (0xB0A8BFC365FE14DA8AE4551DAA680995)
Complete name : F:\Downloads\PanasonicVieraDemo(3D)2012.halfOU(ash61)\PanasonicVieraDemo(3D)2012.halfOU(ash61)-1080p6ch.mkv
Format : Matroska
File size : 2.03 GiB
Duration : 20mn 41s
Overall bit rate : 14.0 Mbps
Movie name : Panasonic Viera Demo 2012 (3D) (ash61)
Encoded date : UTC 2012-04-16 19:36:58
Writing application : mkvmerge v3.4.0 ('Rapunzel') сборка от May 15 2010 09:38:20
Writing library : libebml v0.8.0 + libmatroska v0.9.0
Video
ID : 1
Format : AVC
Format/Info : Advanced Video Codec
Format profile : High@L4.1
Format settings, CABAC : Yes
Format settings, ReFrames : 4 frames
Codec ID : V_MPEG4/ISO/AVC
Duration : 20mn 41s
Bit rate : 13.1 Mbps
Width : 1 920 pixels
Height : 1 080 pixels
Display aspect ratio : 16:9
Frame rate : 23.976 fps
Color space : YUV
Chroma subsampling : 4:2:0
Bit depth : 8 bits
Scan type : Progressive
Bits/(Pixel*Frame) : 0.264
Stream size : 1.90 GiB (93%)
Writing library : x264 core 116 r2074 2641b9e
Encoding settings : cabac=1 / ref=4 / deblock=1:-3:-3 / analyse=0x3:0x133 / me=umh / subme=9 / psy=1 / psy_rd=1.00:0.15 / mixed_ref=1 / me_range=16 / chroma_me=1 / trellis=2 / 8x8dct=1 / cqm=0 / deadzone=21,11 / fast_pskip=1 / chroma_qp_offset=-3 / threads=3 / sliced_threads=0 / nr=0 / decimate=1 / interlaced=0 / bluray_compat=0 / constrained_intra=0 / bframes=6 / b_pyramid=2 / b_adapt=2 / b_bias=0 / direct=3 / weightb=1 / open_gop=0 / weightp=2 / keyint=250 / keyint_min=23 / scenecut=40 / intra_refresh=0 / rc_lookahead=60 / rc=crf / mbtree=1 / crf=18.0 / qcomp=0.70 / qpmin=0 / qpmax=69 / qpstep=4 / vbv_maxrate=40000 / vbv_bufsize=40000 / crf_max=0.0 / nal_hrd=none / ip_ratio=1.40 / aq=1:0.70
Audio
ID : 2
Format : AC-3
Format/Info : Audio Coding 3
Mode extension : CM (complete main)
Codec ID : A_AC3
Duration : 20mn 41s
Bit rate mode : Constant
Bit rate : 640 Kbps
Channel(s) : 6 channels
Channel positions : Front: L C R, Side: L R, LFE
Sampling rate : 48.0 KHz
Bit depth : 16 bits
Compression mode : Lossy
Stream size : 94.8 MiB (5%)
Menu
00:00:00.000 : :009 Re: Cyborg
00:04:34.441 : :Hara-Kiri: Death of Samurai
00:07:52.221 : :Assignment SV
00:10:13.362 : :"Free" by Natalia Kills
00:13:35.814 : :The British Museum
00:18:29.941 : :Flowing in the Dark

MediaInfo файла #3

General
UniqueID : 184338348821684645217791055293877856386 (0x8AAE464B7EA6CAC9BC66D5CD3E2C2882)
Complete name : F:\Downloads\PanasonicVieraDemo(3D)2012.halfOU(ash61)\PanasonicVieraDemo(3D)2012.halfOU(ash61)-720p2ch.mkv
Format : Matroska
File size : 1.15 GiB
Duration : 16mn 1s
Overall bit rate : 10.3 Mbps
Movie name : Panasonic Viera Demo 2012 (3D) (ash61)
Encoded date : UTC 2012-04-13 09:29:49
Writing application : mkvmerge v3.4.0 ('Rapunzel') сборка от May 15 2010 09:38:20
Writing library : libebml v0.8.0 + libmatroska v0.9.0
Video
ID : 1
Format : AVC
Format/Info : Advanced Video Codec
Format profile : High@L4.1
Format settings, CABAC : Yes
Format settings, ReFrames : 4 frames
Format settings, GOP : M=1, N=16
Codec ID : V_MPEG4/ISO/AVC
Duration : 16mn 1s
Bit rate : 9 676 Kbps
Width : 1 280 pixels
Height : 720 pixels
Display aspect ratio : 16:9
Frame rate : 59.940 fps
Color space : YUV
Chroma subsampling : 4:2:0
Bit depth : 8 bits
Scan type : Progressive
Bits/(Pixel*Frame) : 0.175
Stream size : 1.08 GiB (94%)
Title : BDrip by ash61
Writing library : x264 core 119 r2106 07efeb4
Encoding settings : cabac=1 / ref=4 / deblock=1:-3:-3 / analyse=0x3:0x113 / me=umh / subme=9 / psy=1 / psy_rd=1.00:0.15 / mixed_ref=1 / me_range=16 / chroma_me=1 / trellis=2 / 8x8dct=1 / cqm=0 / deadzone=21,11 / fast_pskip=1 / chroma_qp_offset=-3 / threads=3 / sliced_threads=0 / nr=0 / decimate=1 / interlaced=0 / bluray_compat=0 / constrained_intra=0 / bframes=6 / b_pyramid=2 / b_adapt=2 / b_bias=0 / direct=3 / weightb=1 / open_gop=0 / weightp=2 / keyint=250 / keyint_min=25 / scenecut=40 / intra_refresh=0 / rc_lookahead=60 / rc=crf / mbtree=1 / crf=18.0 / qcomp=0.70 / qpmin=0 / qpmax=69 / qpstep=4 / vbv_maxrate=40000 / vbv_bufsize=40000 / crf_max=0.0 / nal_hrd=none / ip_ratio=1.40 / aq=1:0.70
Audio
ID : 2
Format : AC-3
Format/Info : Audio Coding 3
Mode extension : CM (complete main)
Codec ID : A_AC3
Duration : 16mn 1s
Bit rate mode : Constant
Bit rate : 384 Kbps
Channel(s) : 2 channels
Channel positions : Front: L R
Sampling rate : 48.0 KHz
Bit depth : 16 bits
Compression mode : Lossy
Stream size : 44.0 MiB (4%)
Language : English
Menu
00:00:00.000 : :Sarah Brightman for Eco Ideas
00:00:30.147 : :Sarah Brightman - Shall Be Done (v.2 - заставки)
00:04:11.584 : :Diadogei World Cup
00:08:29.358 : :Forest Tweet
00:10:46.044 : :Maharajas' Express
00:13:08.686 : :Ruturu Beautiful Life

MediaInfo файла #4

General
UniqueID : 200720975582097045741897690231597657687 (0x97017427E9A0584F93F33E99444B6E57)
Complete name : F:\Downloads\PanasonicVieraDemo(3D)2012.halfOU(ash61)\PanasonicVieraDemo(3D)2012.halfOU(ash61)-720p6ch.mkv
Format : Matroska
File size : 739 MiB
Duration : 7mn 36s
Overall bit rate : 13.6 Mbps
Movie name : Panasonic Viera Demo 2012 (3D) (ash61)
Encoded date : UTC 2012-04-13 09:31:06
Writing application : mkvmerge v3.4.0 ('Rapunzel') сборка от May 15 2010 09:38:20
Writing library : libebml v0.8.0 + libmatroska v0.9.0
Video
ID : 1
Format : AVC
Format/Info : Advanced Video Codec
Format profile : High@L4.1
Format settings, CABAC : Yes
Format settings, ReFrames : 4 frames
Codec ID : V_MPEG4/ISO/AVC
Duration : 7mn 36s
Bit rate : 12.7 Mbps
Width : 1 280 pixels
Height : 720 pixels
Display aspect ratio : 16:9
Frame rate : 59.940 fps
Color space : YUV
Chroma subsampling : 4:2:0
Bit depth : 8 bits
Scan type : Progressive
Bits/(Pixel*Frame) : 0.229
Stream size : 689 MiB (93%)
Title : BDrip by ash61
Writing library : x264 core 119 r2106 07efeb4
Encoding settings : cabac=1 / ref=4 / deblock=1:-3:-3 / analyse=0x3:0x113 / me=umh / subme=9 / psy=1 / psy_rd=1.00:0.15 / mixed_ref=1 / me_range=16 / chroma_me=1 / trellis=2 / 8x8dct=1 / cqm=0 / deadzone=21,11 / fast_pskip=1 / chroma_qp_offset=-3 / threads=3 / sliced_threads=0 / nr=0 / decimate=1 / interlaced=0 / bluray_compat=0 / constrained_intra=0 / bframes=6 / b_pyramid=2 / b_adapt=2 / b_bias=0 / direct=3 / weightb=1 / open_gop=0 / weightp=2 / keyint=250 / keyint_min=25 / scenecut=40 / intra_refresh=0 / rc_lookahead=60 / rc=crf / mbtree=1 / crf=18.0 / qcomp=0.70 / qpmin=0 / qpmax=69 / qpstep=4 / vbv_maxrate=40000 / vbv_bufsize=40000 / crf_max=0.0 / nal_hrd=none / ip_ratio=1.40 / aq=1:0.70
Audio
ID : 2
Format : AC-3
Format/Info : Audio Coding 3
Mode extension : CM (complete main)
Codec ID : A_AC3
Duration : 7mn 36s
Bit rate mode : Constant
Bit rate : 640 Kbps
Channel(s) : 6 channels
Channel positions : Front: L C R, Side: L R, LFE
Sampling rate : 48.0 KHz
Bit depth : 16 bits
Compression mode : Lossy
Stream size : 34.8 MiB (5%)
Language : English
Menu
00:00:00.000 : :Get Ready for London
00:02:28.848 : :Coming Soon "London 2012"
00:04:51.107 : :Italian Football Serie A

Скриншоты (по одному на каждый ролик)

Благодарности релизеру (11)

Торрент:

Статус:

Размер:

Зарегистрирован   [ 2012-04-20 17:01 ]

проверено

5.55 GB