Торренты   
 
 

 

Другой мир: Пробуждение / Underworld: Awakening [2012 г., BDrip, half1080p, Anamorph OverUnder]

Рейтинг 3D:
9 голосов
7.3
Рейтинг фильма:
11 голосов
8.0
 
Вы должны быть авторизированы,
чтобы ставить оценки



«Месть проснулась»

Год выпуска: 2012
Страна: США
Студии: Screen Gems, Lakeshore Entertainment, Sketch Films, Saturn Films
Жанр: Боевик, Фэнтези, Ужасы
Продолжительность: 01:28:35
Перевод: Профессиональный (полное дублирование)-Режиссер:
Монс Морлинд, Бьёрн Стейн / Måns Mårlind, Björn Stein
Сценарий: Лен Уайзман, Джон Лавин, Дж. Майкл Стражински
Продюсер: Гари Лучези, Том Розенберг, Лен Уайзман
Оператор: Скотт Кеван
Композитор: Пол Хаслингер
Художник: Клод Паре, Мартина Яворова, Гари Майерс
Монтаж: Джефф МакЭвой
В ролях:
Кейт Бекинсейл, Стивен Ри, Майкл Или, Тео Джеймс, Индия Айли, Чарльз Дэнс, Сандрин Холт, Кристен Холден-Рид, Джейкоб Блэр, Адам Рейд и др.
Роли дублировали:
Светлана Кузнецова, Сергей Куприянов, Виктор Костецкий, Александр Трофимов, Олег Тилькин и др.-Описание:
Через 12 лет в состоянии, близком к коматозному, Селин узнает о существовании родной дочери Евы — гибрида вампира и ликана. И Селин необходимо помешать БиоКом создать суперликанов, которые убьют их всех.-Проверено на встроенном плеере ТВ LG 42LW4500


За исходник спасибо , crazy_gringo и меценату Dooo!
-Качество: BDrip
Контейнер: MKV
Формат 3D: Anamorph OverUnder / Вертикальная анаморфная стереопара
Видео: AVC, 1920x1080, 23.976 кадр/сек, 9,7 Мбит/сек
Аудио 1: русский; AC3, 5.1, 640 Кбит/сек, 48,0 КГц
Аудио 2: украинский; AC3, 5.1, 640 Кбит/сек, 48,0 КГц
Аудио 3: английский; AC3, 5.1, 640 Кбит/сек, 48,0 КГц
Субтитры: softsub SRT (по умолчанию все отключены) - отдельно на Narod.Ru
#1: Русские полные
#2: Русские комментарии создателей
#3: Английские форсированные (на русскую речь)
#4: Английские полные
#5: Английские комментарии создателей

СКРИНШОТЫ

MI

Код:
Общее
Уникальный идентификатор                 : 190267103989397092796894739684320338294 (0x8F241C7E30901A54ACA63D15CBCBE176)
Полное имя                               : D:\3D-RuGroup\Фильмы\Underworld.Awakening.3D.2012.BD3DRip.Half.OU.x264.AC3.Rus.Ukr.Eng.mkv
Формат                                   : Matroska
Версия формата                           : Version 2
Размер файла                             : 7,31 Гбайт
Продолжительность                        : 1 ч. 28 м.
Общий поток                              : 11,8 Мбит/сек
Название фильма                          : Underworld: Awakening by itsamna aka elephant
Дата кодирования                         : UTC 2012-04-20 13:46:02
Программа кодирования                    : mkvmerge v3.4.0 ('Rapunzel') сборка от May 15 2010 09:38:20
Библиотека кодирования                   : libebml v0.8.0 + libmatroska v0.9.0
Видео
Идентификатор                            : 1
Формат                                   : AVC
Формат/Информация                        : Advanced Video Codec
Профиль формата                          : High@L4.1
Параметр CABAC формата                   : Да
Параметр ReFrames формата                : 4 кадра
Идентификатор кодека                     : V_MPEG4/ISO/AVC
Продолжительность                        : 1 ч. 28 м.
Битрейт                                  : 9653 Кбит/сек
Ширина                                   : 1920 пикселей
Высота                                   : 1080 пикселей
Соотношение сторон                       : 16:9
Частота кадров                           : 23,976 кадра/сек
Цветовое пространство                    : YUV
Субдискретизация насыщенности            : 4:2:0
Битовая глубина                          : 8 бит
Тип развёртки                            : Прогрессивная
Бит/(Пиксели*Кадры)                      : 0.194
Размер потока                            : 5,97 Гбайт (82%)
Заголовок                                : Underworld: Awakening
Библиотека кодирования                   : x264 core 116 r2074 2641b9e
Настройки программы                      : cabac=1 / ref=4 / deblock=1:-3:-3 / analyse=0x3:0x133 / me=umh / subme=9 / psy=1 / psy_rd=1.00:0.15 / mixed_ref=1 / me_range=16 / chroma_me=1 / trellis=2 / 8x8dct=1 / cqm=0 / deadzone=21,11 / fast_pskip=0 / chroma_qp_offset=-3 / threads=3 / sliced_threads=0 / nr=0 / decimate=1 / interlaced=0 / bluray_compat=0 / constrained_intra=0 / bframes=6 / b_pyramid=2 / b_adapt=2 / b_bias=0 / direct=3 / weightb=1 / open_gop=0 / weightp=2 / keyint=250 / keyint_min=23 / scenecut=40 / intra_refresh=0 / rc_lookahead=60 / rc=crf / mbtree=1 / crf=15.0 / qcomp=0.70 / qpmin=0 / qpmax=69 / qpstep=4 / vbv_maxrate=50000 / vbv_bufsize=50000 / crf_max=0.0 / nal_hrd=none / ip_ratio=1.40 / aq=1:0.70
Default                                  : Да
Forced                                   : Нет
Аудио #1
Идентификатор                            : 2
Формат                                   : AC-3
Формат/Информация                        : Audio Coding 3
Расширение режима                        : CM (complete main)
Идентификатор кодека                     : A_AC3
Продолжительность                        : 1 ч. 28 м.
Вид битрейта                             : Постоянный
Битрейт                                  : 640 Кбит/сек
Каналы                                   : 6 каналов
Расположение каналов                     : Front: L C R, Side: L R, LFE
Частота                                  : 48,0 КГц
Битовая глубина                          : 16 бит
Метод сжатия                             : С потерями
Размер потока                            : 405 Мбайт (5%)
Заголовок                                : Dub
Язык                                     : Russian
Default                                  : Да
Forced                                   : Нет
Аудио #2
Идентификатор                            : 3
Формат                                   : AC-3
Формат/Информация                        : Audio Coding 3
Расширение режима                        : CM (complete main)
Идентификатор кодека                     : A_AC3
Продолжительность                        : 1 ч. 28 м.
Вид битрейта                             : Постоянный
Битрейт                                  : 640 Кбит/сек
Каналы                                   : 6 каналов
Расположение каналов                     : Front: L C R, Side: L R, LFE
Частота                                  : 48,0 КГц
Битовая глубина                          : 16 бит
Метод сжатия                             : С потерями
Размер потока                            : 405 Мбайт (5%)
Заголовок                                : Dub
Язык                                     : Ukrainian
Default                                  : Нет
Forced                                   : Нет
Аудио #3
Идентификатор                            : 4
Формат                                   : AC-3
Формат/Информация                        : Audio Coding 3
Расширение режима                        : CM (complete main)
Идентификатор кодека                     : A_AC3
Продолжительность                        : 1 ч. 28 м.
Вид битрейта                             : Постоянный
Битрейт                                  : 640 Кбит/сек
Каналы                                   : 6 каналов
Расположение каналов                     : Front: L C R, Side: L R, LFE
Частота                                  : 48,0 КГц
Битовая глубина                          : 16 бит
Метод сжатия                             : С потерями
Размер потока                            : 405 Мбайт (5%)
Заголовок                                : Original
Язык                                     : English
Default                                  : Нет
Forced                                   : Нет
Меню
00:00:00.000                             : :01
00:04:26.057                             : :02
00:07:45.340                             : :03
00:16:20.188                             : :04
00:21:11.812                             : :05
00:24:49.988                             : :06
00:30:29.828                             : :07
00:35:31.755                             : :08
00:40:04.944                             : :09
00:45:23.930                             : :10
00:52:30.731                             : :11
00:57:21.563                             : :12
01:02:53.937                             : :13
01:07:43.726                             : :14
01:12:18.501                             : :15
01:16:41.430                             : :16
Благодарности релизеру (12)

Торрент:

Статус:

Размер:

Зарегистрирован   [ 2012-04-20 18:16 ]

проверено

7.31 GB