Торренты   
 
 

 

Другой мир: Пробуждение 3D / Underworld: Awakening 3D (Монс Морлинд ,Бьёрн Стейн) [2012 г., Anaglyph, red'cyan]

Рейтинг 3D:
2 голосов
9.0
Рейтинг фильма:
2 голосов
8.5
 
Вы должны быть авторизированы,
чтобы ставить оценки


Другой мир: Пробуждение 3D / Underworld: Awakening 3D
Год выпуска: 2012
Страна: США
Жанр: Боевик, Фэнтези, Ужасы
Продолжительность: 01:28:34
Перевод: Профессиональный (полное дублирование)
Режиссер: Монс Морлинд ,Бьёрн Стейн
В ролях: Кейт Бекинсейл, Майкл Или, Чарльз Дэнс, Индия Айли, Стивен Ри, Кристен Холден-Рид, Сандрин Холт, Ричард Цетрон, Тео Джеймс, Роберт Лоуренсон
Описание: Через 12 лет в состоянии, близком к коматозному, Селин узнает о существовании родной дочери Евы - гибрида вампира и ликана. И Селин необходимо помешать БиоКом создать суперликанов, которые убьют их всех.
Формат 3d: Anaglyph
Цвета очков:

Качество : BDrip
Видео: AVC, 12 Мбит/с, 1920x1080, 23.976 кадр/с
Аудио1 : Russian AC3, 48 KHz, 6 ch, 640 kbps
Аудио2 : Ukrainian AC-3, 48.0 KHz,6 ch, 640 Kbps
Аудио3 : English AC-3, 48.0 KHz, 2 ch, 192 Kbps

Скриншоты


MediaInfo

General
Unique ID : 250263705412954252356978218729007733472 (0xBC47095322EDF75F8F4F93EBD5B3DAE0)
Complete name : H:\Новая папка (2)\Drugoj.mir.Probuzhdenie.3D.mkv
Format : Matroska
Format version : Version 2
File size : 8.28 GiB
Duration : 1h 28mn
Overall bit rate : 13.4 Mbps
Encoded date : UTC 2012-04-21 01:27:58
Writing application : mkvmerge v5.4.0 ('Piper') built on Mar 10 2012 13:34:39
Writing library : libebml v1.2.3 + libmatroska v1.3.0
Video
ID : 1
Format : AVC
Format/Info : Advanced Video Codec
Format profile : High@L4.1
Format settings, CABAC : Yes
Format settings, ReFrames : 4 frames
Codec ID : V_MPEG4/ISO/AVC
Duration : 1h 28mn
Bit rate : 12.0 Mbps
Width : 1 920 pixels
Height : 1 080 pixels
Display aspect ratio : 16:9
Frame rate : 23.810 fps
Original frame rate : 23.976 fps
Color space : YUV
Chroma subsampling : 4:2:0
Bit depth : 8 bits
Scan type : Progressive
Bits/(Pixel*Frame) : 0.243
Stream size : 7.20 GiB (87%)
Writing library : x264 core 120 r2120bm 0c7dab9
Encoding settings : cabac=1 / ref=2 / deblock=1:-1:-1 / analyse=0x3:0x113 / me=hex / subme=4 / psy=1 / psy_rd=1.00:0.15 / mixed_ref=0 / me_range=16 / chroma_me=1 / trellis=1 / 8x8dct=1 / cqm=0 / deadzone=21,11 / fast_pskip=1 / chroma_qp_offset=-1 / threads=6 / sliced_threads=0 / nr=0 / decimate=1 / interlaced=0 / bluray_compat=0 / constrained_intra=0 / bframes=3 / b_pyramid=2 / b_adapt=1 / b_bias=0 / direct=1 / weightb=1 / open_gop=0 / weightp=1 / keyint=250 / keyint_min=23 / scenecut=40 / intra_refresh=0 / rc_lookahead=20 / rc=abr / mbtree=1 / bitrate=12000 / ratetol=1.0 / qcomp=0.60 / qpmin=0 / qpmax=69 / qpstep=4 / ip_ratio=1.40 / aq=1:1.00
Language : English
Default : Yes
Forced : No
Audio #1
ID : 2
Format : AC-3
Format/Info : Audio Coding 3
Mode extension : CM (complete main)
Codec ID : A_AC3
Duration : 1h 28mn
Bit rate mode : Constant
Bit rate : 640 Kbps
Channel(s) : 6 channels
Channel positions : Front: L C R, Side: L R, LFE
Sampling rate : 48.0 KHz
Bit depth : 16 bits
Compression mode : Lossy
Stream size : 405 MiB (5%)
Language : Russian
Default : Yes
Forced : No
Audio #2
ID : 3
Format : AC-3
Format/Info : Audio Coding 3
Mode extension : CM (complete main)
Codec ID : A_AC3
Duration : 1h 28mn
Bit rate mode : Constant
Bit rate : 640 Kbps
Channel(s) : 6 channels
Channel positions : Front: L C R, Side: L R, LFE
Sampling rate : 48.0 KHz
Bit depth : 16 bits
Compression mode : Lossy
Stream size : 405 MiB (5%)
Language : Ukrainian
Default : No
Forced : No
Audio #3
ID : 4
Format : AC-3
Format/Info : Audio Coding 3
Format profile : Dolby Digital
Mode extension : CM (complete main)
Codec ID : A_AC3
Duration : 1h 28mn
Bit rate mode : Constant
Bit rate : 192 Kbps
Channel(s) : 2 channels
Channel positions : Front: L R
Sampling rate : 48.0 KHz
Bit depth : 16 bits
Compression mode : Lossy
Stream size : 122 MiB (1%)
Language : English
Default : No
Forced : No
Благодарности релизеру (3)

Торрент:

Статус:

Размер:

Зарегистрирован   [ 2012-04-21 05:58 ]

проверено

8.28 GB