Торренты   
 
 


Трейлер Двигай время 3Д / Trailer Los ilusionautas 3D [2012 г., DCPrip, Anamorph OverUnder]

Рейтинг 3D:
Пока никто не голосовал
Рейтинг фильма:
Пока никто не голосовал
 
Вы должны быть авторизированы,
чтобы ставить оценки


Трейлер Двигай время 3Д
Trailer Los ilusionautas 3D
--Год выпуска: 2012
Страна: Франция, Перу
Жанр: мультфильм
Продолжительность: 00:02:34--Описание: Невероятные события потрясают Францию. Все герои знаменитых романов Жюля Верна ожили и, сами того не ведая, несут хаос и разрушения. А всё потому, что новый президент Франции и министр культуры задумали внести в романы великого писателя правки и перепутали там всё. Спасти ситуацию может лишь команда из 4-х одарённых детей, которые отправлены в прошлое, чтобы вернуть все истории в прежнее русло и поместить героев Жюля Верна обратно на страницы книг.--Формат 3d: Anamorph OverUnder (левый ракурс верхний)
Качество: DCPrip
Контейнер: mkv
Видео: AVC / 1920х1080p / 23.976 fps / 14.1 Mbps
Аудио: Русский / AC3 / 6 ch / 448 Kbps / 48 KHz--

MediaInfo:

Код:
General
Unique ID                        : 250606549433615135766863094559853675234 (0xBC8910D70C5A60F3977FE95E9A3E82E2)
Complete name                    : L:\_3D\3D-Trailers\Trailer_Los-ilusionautas(3D)HalfOU-abq.mkv
Format                           : Matroska
File size                        : 274 MiB
Duration                         : 2mn 34s
Overall bit rate                 : 14.9 Mbps
Encoded date                     : UTC 2012-04-21 11:23:05
Writing application              : mkvmerge v4.0.0 ('The Stars were mine') сборка от Jun  6 2010 16:18:42
Writing library                  : libebml v1.0.0 + libmatroska v1.0.0
Video
ID                               : 1
Format                           : AVC
Format/Info                      : Advanced Video Codec
Format profile                   : High@L4.1
Format settings, CABAC           : Yes
Format settings, ReFrames        : 4 frames
Format settings, GOP             : M=1, N=2
Codec ID                         : V_MPEG4/ISO/AVC
Duration                         : 2mn 34s
Bit rate                         : 14.1 Mbps
Width                            : 1 920 pixels
Height                           : 1 080 pixels
Display aspect ratio             : 16:9
Frame rate                       : 23.976 fps
Color space                      : YUV
Chroma subsampling               : 4:2:0
Bit depth                        : 8 bits
Scan type                        : Progressive
Bits/(Pixel*Frame)               : 0.284
Stream size                      : 261 MiB (95%)
Writing library                  : x264 core 116 r2074 2641b9e
Encoding settings                : cabac=1 / ref=4 / deblock=1:-3:-3 / analyse=0x3:0x113 / me=umh / subme=9 / psy=1 / psy_rd=1.00:0.15 / mixed_ref=1 / me_range=16 / chroma_me=1 / trellis=2 / 8x8dct=1 / cqm=0 / deadzone=21,11 / fast_pskip=1 / chroma_qp_offset=-3 / threads=6 / sliced_threads=0 / nr=0 / decimate=1 / interlaced=0 / bluray_compat=0 / constrained_intra=0 / bframes=6 / b_pyramid=2 / b_adapt=2 / b_bias=0 / direct=3 / weightb=1 / open_gop=0 / weightp=2 / keyint=250 / keyint_min=23 / scenecut=40 / intra_refresh=0 / rc_lookahead=60 / rc=crf / mbtree=1 / crf=18.0 / qcomp=0.60 / qpmin=0 / qpmax=69 / qpstep=4 / vbv_maxrate=40000 / vbv_bufsize=40000 / crf_max=0.0 / nal_hrd=none / ip_ratio=1.40 / aq=1:0.70
Language                         : English
Audio
ID                               : 2
Format                           : AC-3
Format/Info                      : Audio Coding 3
Mode extension                   : CM (complete main)
Codec ID                         : A_AC3
Duration                         : 2mn 34s
Bit rate mode                    : Constant
Bit rate                         : 448 Kbps
Channel(s)                       : 6 channels
Channel positions                : Front: L C R, Side: L R, LFE
Sampling rate                    : 48.0 KHz
Bit depth                        : 16 bits
Compression mode                 : Lossy
Stream size                      : 8.27 MiB (3%)
Language                         : Russian

Скриншоты

Благодарности релизеру (1)

Торрент:

Статус:

Размер:

Зарегистрирован   [ 2012-04-21 16:58 ]

* не проверено

274 MB