Торренты   
 
 

 

Большой отрыв БОБа 3D / B.O.B.'s Big Break 3D (Роберт Портер) [2009 г., Anamorph OverUnder]

Рейтинг 3D:
8 голосов
8.5
Рейтинг фильма:
8 голосов
7.5
 
Вы должны быть авторизированы,
чтобы ставить оценки


Большой отрыв БОБа 3D / B.O.B.'s Big Break 3D
Год выпуска: 2009
Страна: США
Жанр: Мультфильм, Короткометражка, Комедия, Приключения
Продолжительность: 00:13:18
Перевод: Профессиональный (полное дублирование)
Режиссер: Роберт Портер
В ролях: Сет Роген (Б.О.Б.), Хью Лори (доктор наук Таракан), Уилл Арнетт (Недостающее Звено), Кифер Сазерленд (генерал Воякер), Майк Митчел (Невидимка).
Описание: День рождения — это один из самых замечательных и долгожданных праздников для каждого человека, в т. ч. и для монстров, — наших любимых героев полнометражного мультфильма «Монстры против пришельцев». Итак, Б. О. Б. справляет свой День рождения, а его неразлучные лучшие друзья Недостающее звено и Таракан Гений разрабатывают отчаянный план побега из лаборатории-темницы генерала Воякера…
Формат 3d: Anamorph OverUnder
Видео: AVC / 23,976 fps / 1920х1080p / 7153 Kbps
Аудио#1: Русский / AC3 / 48 KHz / 2 ch / 192 Kbp
(Дубляж - VO-Production)
Аудио#2: Русский / AC3 / 48 KHz / 5.1 ch / 448 Kbps
(MVO - SkyeFilmTV)
Аудио#3: Английский / AC3 / 48 KHz / 5.1 ch / 640 Kbps
Субтитры: Внешние Русские форсированные
Автор рипа ash61
-

Скриншоты



MediaInfo

F:\ТОРРЕНТЫ\Загружено\B.O.B.'sBigBreak(3D)2009.halfOU(ash61)\B.O.B.'sBigBreak(3D)2009.halfOU(ash61).mkv
General
Unique ID : 251863149724642559561378658157669482068 (0xBD7B1404899CC187B9620344A6B57E54)
Complete name : F:\ТОРРЕНТЫ\Загружено\B.O.B.'sBigBreak(3D)2009.halfOU(ash61)\B.O.B.'sBigBreak(3D)2009.halfOU(ash61).mkv
Format : Matroska
Format version : Version 2
File size : 821 MiB
Duration : 13mn 20s
Overall bit rate : 8 605 Kbps
Movie name : B.O.B.'s Big Break (3D) 2009 (ash61)
Encoded date : UTC 2012-04-14 16:47:46
Writing application : mkvmerge v3.4.0 ('Rapunzel') сборка от May 15 2010 09:38:20
Writing library : libebml v0.8.0 + libmatroska v0.9.0
Video #1
ID : 1
Format : AVC
Format/Info : Advanced Video Codec
Format profile : High@L4.1
Format settings, CABAC : Yes
Format settings, ReFrames : 4 frames
Codec ID : V_MPEG4/ISO/AVC
Duration : 13mn 20s
Bit rate : 7 153 Kbps
Width : 1 920 pixels
Height : 1 080 pixels
Display aspect ratio : 16:9
Frame rate : 23.976 fps
Color space : YUV
Chroma subsampling : 4:2:0
Bit depth : 8 bits
Scan type : Progressive
Bits/(Pixel*Frame) : 0.144
Stream size : 683 MiB (83%)
Title : BDrip by ash61
Writing library : x264 core 116 r2074 2641b9e
Encoding settings : cabac=1 / ref=4 / deblock=1:-3:-3 / analyse=0x3:0x133 / me=umh / subme=9 / psy=1 / psy_rd=1.00:0.15 / mixed_ref=1 / me_range=16 / chroma_me=1 / trellis=2 / 8x8dct=1 / cqm=0 / deadzone=21,11 / fast_pskip=1 / chroma_qp_offset=-3 / threads=3 / sliced_threads=0 / nr=0 / decimate=1 / interlaced=0 / bluray_compat=0 / constrained_intra=0 / bframes=6 / b_pyramid=2 / b_adapt=2 / b_bias=0 / direct=3 / weightb=1 / open_gop=0 / weightp=2 / keyint=250 / keyint_min=23 / scenecut=40 / intra_refresh=0 / rc_lookahead=60 / rc=crf / mbtree=1 / crf=18.0 / qcomp=0.70 / qpmin=0 / qpmax=69 / qpstep=4 / vbv_maxrate=40000 / vbv_bufsize=40000 / crf_max=0.0 / nal_hrd=none / ip_ratio=1.40 / aq=1:0.70
Default : Yes
Forced : No
Audio #2
ID : 2
Format : AC-3
Format/Info : Audio Coding 3
Mode extension : CM (complete main)
Codec ID : A_AC3
Duration : 13mn 20s
Bit rate mode : Constant
Bit rate : 192 Kbps
Channel(s) : 2 channels
Channel positions : Front: L R
Sampling rate : 48.0 KHz
Bit depth : 16 bits
Compression mode : Lossy
Stream size : 18.3 MiB (2%)
Title : DUB [VO-Production]
Language : Russian
Default : Yes
Forced : No
Audio #3
ID : 3
Format : AC-3
Format/Info : Audio Coding 3
Mode extension : CM (complete main)
Codec ID : A_AC3
Duration : 13mn 20s
Bit rate mode : Constant
Bit rate : 448 Kbps
Channel(s) : 6 channels
Channel positions : Front: L C R, Side: L R, LFE
Sampling rate : 48.0 KHz
Bit depth : 16 bits
Compression mode : Lossy
Stream size : 42.8 MiB (5%)
Title : MVO [SkyeFilmTV]
Language : Russian
Default : No
Forced : No
Audio #4
ID : 4
Format : AC-3
Format/Info : Audio Coding 3
Mode extension : CM (complete main)
Codec ID : A_AC3
Duration : 13mn 20s
Bit rate mode : Constant
Bit rate : 640 Kbps
Channel(s) : 6 channels
Channel positions : Front: L C R, Side: L R, LFE
Sampling rate : 48.0 KHz
Bit depth : 16 bits
Compression mode : Lossy
Stream size : 61.1 MiB (7%)
Language : English
Default : No
Forced : No
Благодарности релизеру (10)

Торрент:

Статус:

Размер:

Зарегистрирован   [ 2012-04-21 19:48 ]

проверено

821 MB

 
 Мнение о фильме (4)





Детям очень понравилось. Спасибо
 

прикольненько
 
АНДРЕЙЗ0Л0Т0К Профиль 19-Авг-2013 11:47

Забавный мультик. Качество 3Д хорошее, как и общее качество картинки.
 

3D хорошее, а вот сам мульт ребенку не понравился(((