Торренты   
 
 


Другой мир: Пробуждение в 3Д / Underworld: Awakening 3D (Монс Морлинд, Бьёрн Стейн) [2012, BDrip, 1080p, Full OverUnder]

Рейтинг 3D:
8 голосов
4.9
Рейтинг фильма:
8 голосов
6.8
 
Вы должны быть авторизированы,
чтобы ставить оценки


Другой мир: Пробуждение / Underworld: Awakening

Год выпуска: 2012
Страна: США
Студия: Screen Gems, Lakeshore Entertainment, Sketch Films
Жанр: ужасы, фэнтези, боевик
Продолжительность: 01:28:34
Перевод: Профессиональный (дублированный)
Русские субтитры: есть
Режиссеры: Монс Морлинд, Бьёрн Стейн / Måns Mårlind, Björn Stein
В ролях: Кейт Бекинсейл, Стивен Ри, Майкл Или, Тео Джеймс, Индия Айли, Чарльз Дэнс, Сандрин Холт, Кристен Холден-Рид, Джейкоб Блэр, Адам Рейд
Роли озвучивали: Светлана Кузнецова, Сергей Куприянов, Виктор Костецкий, Александр Трофимов, Олег Тилькин

Описание: Через 12 лет состояния, близкому к коматозному, Селин узнает о существовании родной дочери Евы — гибрида вампира и ликана. И Селин необходимо помешать БиоКом создать суперликанов, которые убьют их всех.
На встроенных ТВ-плейерах работать не будет!!!
Качество: BDrip
Контейнер: MKV
Формат 3D: OverUnder / Вертикальная стереопара
Порядок ракурсов: левый ракурс первый
Видео кодек: x264
Аудио кодек: AC3, DTS
Видео: AVC / 1920х1600 / 23,976 кадр/сек / 10,5 Мбит/сек
Аудио 1: Русский / AC3 / 48 KHz / 5.1 ch / 640 Kbps
Аудио 2: Английский / DTS / 48 KHz / 5.1 ch / 1510 Kbps
Субтитры srt: Русские полные, Русские комментарии создателей, Английские форсированные, Английские полные, Английские комментарии создателей

MediaInfo

General
Complete name : D:\3D Кинофильмы\Другой мир Пробуждение (2012).mkv
Format : Matroska
File size : 7.98 GiB
Duration : 1h 28mn
Overall bit rate : 12.9 Mbps
Movie name : Underworld: Awakening / Другой мир: Пробуждение (3D) 2012 (ash61)
Encoded date : UTC 2012-04-22 18:06:49
Writing application : mkvmerge v3.4.0 ('Rapunzel') сборка от May 15 2010 09:38:20
Writing library : libebml v0.8.0 + libmatroska v0.9.0
Video
ID : 1
Format : AVC
Format/Info : Advanced Video Codec
Format profile : High@L5.0
Format settings, CABAC : Yes
Format settings, ReFrames : 5 frames
Format settings, GOP : M=1, N=32
Muxing mode : Container profile=Unknown@5.0
Codec ID : V_MPEG4/ISO/AVC
Duration : 1h 28mn
Bit rate : 10.5 Mbps
Width : 1 920 pixels
Height : 1 600 pixels
Display aspect ratio : 1.200
Frame rate : 23.976 fps
Color space : YUV
Chroma subsampling : 4:2:0
Bit depth : 8 bits
Scan type : Progressive
Bits/(Pixel*Frame) : 0.142
Stream size : 6.49 GiB (81%)
Writing library : x264 core 119 r2106 07efeb4
Encoding settings : cabac=1 / ref=5 / deblock=1:-3:-3 / analyse=0x3:0x113 / me=umh / subme=9 / psy=1 / psy_rd=1.00:0.15 / mixed_ref=1 / me_range=16 / chroma_me=1 / trellis=2 / 8x8dct=1 / cqm=0 / deadzone=21,11 / fast_pskip=1 / chroma_qp_offset=-3 / threads=6 / sliced_threads=0 / nr=0 / decimate=1 / interlaced=0 / bluray_compat=0 / constrained_intra=0 / bframes=4 / b_pyramid=2 / b_adapt=2 / b_bias=0 / direct=3 / weightb=1 / open_gop=0 / weightp=2 / keyint=250 / keyint_min=23 / scenecut=40 / intra_refresh=0 / rc_lookahead=40 / rc=crf / mbtree=1 / crf=18.0 / qcomp=0.60 / qpmin=10 / qpmax=69 / qpstep=4 / vbv_maxrate=40000 / vbv_bufsize=40000 / crf_max=0.0 / nal_hrd=none / ip_ratio=1.40 / aq=1:1.00
Audio #1
ID : 2
Format : AC-3
Format/Info : Audio Coding 3
Mode extension : CM (complete main)
Codec ID : A_AC3
Duration : 1h 28mn
Bit rate mode : Constant
Bit rate : 640 Kbps
Channel(s) : 6 channels
Channel positions : Front: L C R, Side: L R, LFE
Sampling rate : 48.0 KHz
Bit depth : 16 bits
Stream size : 405 MiB (5%)
Audio #2
ID : 3
Format : DTS
Format/Info : Digital Theater Systems
Codec ID : A_DTS
Duration : 1h 28mn
Bit rate mode : Constant
Bit rate : 1 510 Kbps
Channel(s) : 6 channels
Channel positions : Front: L C R, Side: L R, LFE
Sampling rate : 48.0 KHz
Bit depth : 16 bits
Stream size : 957 MiB (12%)
Text #1
ID : 4
Format : UTF-8
Codec ID : S_TEXT/UTF8
Codec ID/Info : UTF-8 Plain Text
Title : Полные
Language : Russian
Text #2
ID : 5
Format : UTF-8
Codec ID : S_TEXT/UTF8
Codec ID/Info : UTF-8 Plain Text
Title : Комментарии создателей
Language : Russian
Text #3
ID : 6
Format : UTF-8
Codec ID : S_TEXT/UTF8
Codec ID/Info : UTF-8 Plain Text
Title : Forced
Language : English
Text #4
ID : 7
Format : UTF-8
Codec ID : S_TEXT/UTF8
Codec ID/Info : UTF-8 Plain Text
Title : Full
Language : English
Text #5
ID : 8
Format : UTF-8
Codec ID : S_TEXT/UTF8
Codec ID/Info : UTF-8 Plain Text
Title : Commentary with the Filmmakers
Language : English

Скриншоты

Благодарности релизеру (4)

Торрент:

Статус:

Размер:

Зарегистрирован   [ 2012-04-22 22:44 ]

проверено

7.98 GB