Торренты   
 
 

 

IMAX. Серфинг на Таити / The Ultimate Wave Tahiti [2010, BDrip, half1080p, Anamorph OverUnder]

Рейтинг 3D:
8 голосов
8.5
Рейтинг фильма:
7 голосов
8.3
 
Вы должны быть авторизированы,
чтобы ставить оценки


Серфинг на Таити
The Ultimate Wave Tahiti
Год выпуска: 2010
Страна: США (IMAX, Perfect Wave)
Жанр: Документальный
Продолжительность: 00:45:52
Перевод: Профессиональный одноголосый закадровый
Режиссер: Стивен Лоу / Stephen Low
Рассказчик по-английски: Michael Hanrahan
В ролях: Kelly Slater, Raimana Van Bastolear, Kalani Miller
Описание: Действие разворачивается на острове Таити, в местечке Teahupoo,знаменитом своими убийственно быстрыми и тяжелыми волнами. Туда приезжает десятикратный Чемпион Мира и лучший серфер всех времен — Келли Слейтер.
В ожидании идеальных погодных условий, Келли не теряет время и под руководством таитского серф-гуру Раймана Ван Басталейра исследует остров во всех его проявлениях. Общение Келли и Райманы показывает, как страсть к океану объединяет людей из разных миров, что увлекает их в серфинге и заставляет идти на риск ради самых лучших волн. Создатели фильма не только раскрывают секреты философии серфинга, но и рассказывают о его природе: например, как образуются волны и формируются острова.--Премьера: 12 февраля 2010 (17 сентября 2010)
Бюджет: $3 000 000

. . .
Проверено на встроенном плейере ТВ Samsung UE-C7000
--Формат 3d: Anamorph OverUnder
Качество: BDrip
Контейнер: MKV-Видео: AVC / 23,976 fps / 1920х1080p / 20.3 Mbps
Аудио:
#1 - Русский / AC3 / 48 KHz / 5.1 ch / 640 Kbps (Одноголосый закадровый)
#2 - Английский / AC3 / 48 KHz / 5.1 ch / 640 Kbps (Original)
Субтитры: Отсутствуют

MediaInfo

General
UniqueID : 245581651558545858482563053846350725802 (0xB8C14E3F442E2AB38C1E6B42F4AF02AA)
Complete name : F:\Downloads\TheUltimateWaveTahiti(3D)2010.halfOU(ash61).mkv
Format : Matroska
File size : 7.06 GiB
Duration : 45mn 53s
Overall bit rate : 22.0 Mbps
Movie name : The Ultimate Wave Tahiti (3D) 2010 (ash61)
Encoded date : UTC 2012-09-14 17:17:36
Writing application : mkvmerge v3.4.0 ('Rapunzel') сборка от May 15 2010 09:38:20
Writing library : libebml v0.8.0 + libmatroska v0.9.0
Video
ID : 1
Format : AVC
Format/Info : Advanced Video Codec
Format profile : High@L4.1
Format settings, CABAC : Yes
Format settings, ReFrames : 4 frames
Codec ID : V_MPEG4/ISO/AVC
Duration : 45mn 53s
Bit rate : 20.3 Mbps
Width : 1 920 pixels
Height : 1 080 pixels
Display aspect ratio : 16:9
Frame rate : 23.976 fps
Color space : YUV
Chroma subsampling : 4:2:0
Bit depth : 8 bits
Scan type : Progressive
Bits/(Pixel*Frame) : 0.408
Stream size : 6.51 GiB (92%)
Title : BDrip by ash61
Writing library : x264 core 119 r2106 07efeb4
Encoding settings : cabac=1 / ref=4 / deblock=1:-3:-3 / analyse=0x3:0x113 / me=umh / subme=9 / psy=1 / psy_rd=1.00:0.15 / mixed_ref=1 / me_range=16 / chroma_me=1 / trellis=2 / 8x8dct=1 / cqm=0 / deadzone=21,11 / fast_pskip=1 / chroma_qp_offset=-3 / threads=3 / sliced_threads=0 / nr=0 / decimate=1 / interlaced=0 / bluray_compat=0 / constrained_intra=0 / bframes=6 / b_pyramid=2 / b_adapt=2 / b_bias=0 / direct=3 / weightb=1 / open_gop=0 / weightp=2 / keyint=250 / keyint_min=23 / scenecut=40 / intra_refresh=0 / rc_lookahead=60 / rc=crf / mbtree=1 / crf=18.0 / qcomp=0.70 / qpmin=0 / qpmax=69 / qpstep=4 / vbv_maxrate=40000 / vbv_bufsize=40000 / crf_max=0.0 / nal_hrd=none / ip_ratio=1.40 / aq=1:0.70
Audio #1
ID : 2
Format : AC-3
Format/Info : Audio Coding 3
Mode extension : CM (complete main)
Codec ID : A_AC3
Duration : 45mn 53s
Bit rate mode : Constant
Bit rate : 640 Kbps
Channel(s) : 6 channels
Channel positions : Front: L C R, Side: L R, LFE
Sampling rate : 48.0 KHz
Bit depth : 16 bits
Compression mode : Lossy
Stream size : 210 MiB (3%)
Title : VO
Language : Russian
Audio #2
ID : 3
Format : AC-3
Format/Info : Audio Coding 3
Mode extension : CM (complete main)
Codec ID : A_AC3
Duration : 45mn 53s
Bit rate mode : Constant
Bit rate : 640 Kbps
Channel(s) : 6 channels
Channel positions : Front: L C R, Side: L R, LFE
Sampling rate : 48.0 KHz
Bit depth : 16 bits
Compression mode : Lossy
Stream size : 210 MiB (3%)
Language : English
Menu
00:00:00.000 : :1
00:02:18.221 : :2
00:03:54.860 : :3
00:06:49.618 : :4
00:07:57.769 : :5
00:10:17.116 : :6
00:11:41.659 : :7
00:13:35.940 : :8
00:14:45.843 : :9
00:20:36.360 : :10
00:24:33.806 : :11
00:27:21.557 : :12
00:28:41.970 : :13
00:32:29.698 : :14
00:34:37.909 : :15
00:35:41.264 : :16
00:39:51.764 : :17
00:41:40.957 : :18
14.09.2012 - Релиз обновлён - добавлена русская дорога.
Желающие, скачайте заново торрент-файл.
Благодарности релизеру (30)

Торрент:

Статус:

Размер:

Зарегистрирован   [ 2012-09-14 23:40 ]

проверено

7.06 GB