Торренты   
 
 


Flower from Towel. [Anamorph SideBySide]

Рейтинг 3D:
Пока никто не голосовал
Рейтинг фильма:
Пока никто не голосовал
 
Вы должны быть авторизированы,
чтобы ставить оценки


Flower from Towel.
Страна: Egypt.
Жанр: мастеркласс
Продолжительность: 2 мин.
Описание: Мастеркласс Египетского Хаускипера по изготовлению цветка из 3-х полотенец.
Формат 3d: Anamorph SideBySide
Видео: mp4
Format : MPEG-4
Format profile : Base Media / Version 2
Codec ID : mp42
File size : 411 MiB
Duration : 2mn 17s
Overall bit rate : 25.1 Mbps
Encoded date : UTC 2012-04-23 21:16:06
Tagged date : UTC 2012-04-23 21:16:06
©TIM : 00:00:00:00
©TSC : 25
©TSZ : 1
Video
ID : 1
Format : AVC
Format/Info : Advanced Video Codec
Format profile : High@L5.1
Format settings, CABAC : Yes
Format settings, ReFrames : 3 frames
Codec ID : avc1
Codec ID/Info : Advanced Video Coding
Duration : 2mn 17s
Bit rate mode : Constant
Bit rate : 25.0 Mbps
Width : 1 280 pixels
Height : 720 pixels
Display aspect ratio : 16:9
Frame rate mode : Constant
Frame rate : 25.000 fps
Standard : PAL
Color space : YUV
Chroma subsampling : 4:2:0
Bit depth : 8 bits
Scan type : Progressive
Bits/(Pixel*Frame) : 1.085
Stream size : 409 MiB (99%)
Language : English
Encoded date : UTC 2012-04-23 21:16:06
Tagged date : UTC 2012-04-23 21:16:06
Color primaries : BT.709-5, BT.1361, IEC 61966-2-4, SMPTE RP177
Transfer characteristics : BT.709-5, BT.1361
Matrix coefficients : BT.709-5, BT.1361, IEC 61966-2-4 709, SMPTE RP177
Audio
ID : 2
Format : AAC
Format/Info : Advanced Audio Codec
Format profile : LC
Codec ID : 40
Duration : 2mn 17s
Bit rate mode : Variable
Bit rate : 125 Kbps
Maximum bit rate : 207 Kbps
Channel(s) : 2 channels
Channel positions : Front: L R
Sampling rate : 48.0 KHz
Compression mode : Lossy
Stream size : 2.06 MiB (1%)
Language : English
Encoded date : UTC 2012-04-23 21:16:06
Tagged date : UTC 2012-04-23 21:16:06

Скриншоты



Благодарности релизеру (0)

Торрент:

Статус:

Размер:

Зарегистрирован   [ 2012-04-24 01:23 ]

проверено

411 MB