Торренты   
 
 


Сказ про храбрую девочку Яночку. (Bogdanoffstudio) [2012 г., Anamorph OverUnder]

Сказ про храбрую девочку Яночку.
Год выпуска: 2012
Страна: Россия
Жанр: мультфильм
Продолжительность: 10 мин.
Режиссер: Bogdanoffstudio
Описание: Мульт-хоррор к дню рождения. Слабонервным смотреть не рекомендуется.
Формат 3d: Anamorph OverUnder

Скриншоты





MediaInfo

Общее
Полное имя : C:\Users\Lenovo\Desktop\торрент\Сказ про храбрую девочку Яночку [2012 г., Anamorph OverUnder].mp4
Формат : MPEG-4
Профиль формата : Base Media / Version 2
Идентификатор кодека : mp42
Размер файла : 1002 Мбайт
Продолжительность : 9 м. 29 с.
Режим общего битрейта : Переменный
Общий поток : 14,8 Мбит/сек
Дата кодирования : UTC 2012-04-24 12:13:34
Дата пометки : UTC 2012-04-24 12:13:34
©TIM : 00;00;00;00
©TSC : 30000
©TSZ : 1001
Видео
Идентификатор : 1
Формат : AVC
Формат/Информация : Advanced Video Codec
Профиль формата : Main@L4.2
Параметр CABAC формата : Да
Параметр ReFrames формата : 3 кадра
Параметр GOP формата : M=4, N=33
Идентификатор кодека : avc1
Идентификатор кодека/Информация : Advanced Video Coding
Продолжительность : 9 м. 29 с.
Битрейт : 14,6 Мбит/сек
Ширина : 1920 пикселей
Высота : 1080 пикселей
Соотношение сторон : 16:9
Режим частоты кадров : Постоянный
Частота кадров : 29,970 кадров/сек
Стандарт вещания : NTSC
Цветовое пространство : YUV
Субдискретизация насыщенности : 4:2:0
Битовая глубина : 8 бит
Тип развёртки : Прогрессивная
Бит/(Пиксели*Кадры) : 0.235
Размер потока : 991 Мбайт (99%)
Язык : English
Дата кодирования : UTC 2012-04-24 12:13:34
Дата пометки : UTC 2012-04-24 12:13:34
Аудио
Идентификатор : 2
Формат : AAC
Формат/Информация : Advanced Audio Codec
Профиль формата : LC
Идентификатор кодека : 40
Продолжительность : 9 м. 29 с.
Source_Duration/String : 9 м. 29 с.
Вид битрейта : Переменный
Битрейт : 157 Кбит/сек
Максимальный битрейт : 249 Кбит/сек
Каналы : 2 канала
Расположение каналов : Front: L R
Частота : 48,0 КГц
Метод сжатия : С потерями
Размер потока : 10,7 Мбайт (1%)
Source_StreamSize/String : 10,7 Мбайт
Язык : English
Дата кодирования : UTC 2012-04-24 12:13:34
Дата пометки : UTC 2012-04-24 12:13:34
т