Торренты   
 
 


Другой мир: Пробуждение 3D / Underworld: Awakening 3D (Монс Морлинд, Бьёрн Стейн) [2012 г., Anamorph SideBySide]

Рейтинг 3D:
4 голосов
4.8
Рейтинг фильма:
3 голосов
7.7
 
Вы должны быть авторизированы,
чтобы ставить оценки


Другой мир: Пробуждение 3D / Underworld: Awakening 3D
Год выпуска: 2012
Страна: США (Screen Gems, Lakeshore Entertainment, Sketch Films)
Жанр: Боевик, Фэнтези, Ужасы
Продолжительность: 01:28:34
Перевод: Профессиональный (полное дублирование)Russ/Ukr
Режиссер на русском:Монс Морлинд, Бьёрн Стейн
Режиссер на английском: Mans Marlind, Björn Stein
Роли исполняли (Дублировали)::
Селена - Кейт Бекинсейл (Светлана Кузнецова)
Доктор Джейкоб Лэйн - Стивен Ри (Сергей Куприянов)
Детектив Себастиан - Майкл Или
Дэвид - Тео Джеймс
Ева - Индия Айли
Томас - Чарльз Дэнс (Виктор Костецкий)
Лида - Сандрин Холт
Куинт - Кристен Холден-Рид (Александр Трофимов)
Офицер Колб - Джейкоб Блэр (Олег Тилькин)
Описание: Через 12 лет состояния, близкому к коматозному, Селин узнает о существовании родной дочери Евы — гибрида вампира и ликана. И Селин необходимо помешать БиоКом создать суперликанов, которые убьют их всех.--

--Качество: BDrip
Контейнер: MKV
Формат 3D: Half SideBySide /Горизонтальная анаморфная стереопара
Порядок ракурсов: левый ракурс первый
Видео кодек: h.264
Аудио кодек: AC3
Видео: AVC / 1920х800/ 23,976 fps / 8200 Кбит/сек
Аудио#1: Русский / AC3 / 48 KHz / 5.1ch / 640 Kbps
Аудио#2: Украинский / AC3 / 48 KHz / 5.1ch / 640 Kbpss
Аудио#3: Английский / AC3 / 48 KHz / 5.1ch / 640 Kbps
Субтитры: вшитые softsub SRT ( русские,английские )

Скриншоты

MediaInfo

Общее
Уникальный идентификатор : 170442231049621302450525786202921829720 (0x8039FACAC7726C0C8D594558A07D0558)
Полное имя : E:\кино\Underworld.Awakening.2012.3D.Half-SBS.BluRay.1080p.AC3 5.1(marik 05).mkv
Формат : Matroska
Версия формата : Version 2
Размер файла : 6,26 Гбайт
Продолжительность : 1 ч. 28 м.
Общий поток : 10,1 Мбит/сек
Название фильма : Underworld.Awakening.2012.3D by M@rik05
Дата кодирования : UTC 2012-04-26 08:44:15
Программа кодирования : mkvmerge v3.4.0 ('Rapunzel') сборка от May 15 2010 09:38:20
Библиотека кодирования : libebml v0.8.0 + libmatroska v0.9.0
Видео
Идентификатор : 1
Формат : AVC
Формат/Информация : Advanced Video Codec
Профиль формата : High@L4.1
Параметр CABAC формата : Да
Параметр ReFrames формата : 4 кадра
Идентификатор кодека : V_MPEG4/ISO/AVC
Продолжительность : 1 ч. 28 м.
Битрейт : 8200 Кбит/сек
Ширина : 1920 пикселей
Высота : 800 пикселей
Соотношение сторон : 2,40:1
Частота кадров : 23,976 кадра/сек
Цветовое пространство : YUV
Субдискретизация насыщенности : 4:2:0
Битовая глубина : 8 бит
Тип развёртки : Прогрессивная
Бит/(Пиксели*Кадры) : 0.223
Размер потока : 4,95 Гбайт (79%)
Библиотека кодирования : x264 core 122 r2184 5c85e0a
Настройки программы : cabac=1 / ref=3 / deblock=1:-3:-3 / analyse=0x3:0x133 / me=esa / subme=10 / psy=1 / psy_rd=0.95:0.00 / mixed_ref=1 / me_range=32 / chroma_me=1 / trellis=2 / 8x8dct=1 / cqm=0 / deadzone=21,11 / fast_pskip=1 / chroma_qp_offset=-2 / threads=6 / sliced_threads=0 / nr=0 / decimate=0 / interlaced=0 / bluray_compat=0 / constrained_intra=0 / bframes=8 / b_pyramid=2 / b_adapt=2 / b_bias=0 / direct=3 / weightb=1 / open_gop=0 / weightp=2 / keyint=250 / keyint_min=23 / scenecut=40 / intra_refresh=0 / rc_lookahead=40 / rc=2pass / mbtree=1 / bitrate=8200 / ratetol=1.0 / qcomp=0.60 / qpmin=0 / qpmax=69 / qpstep=4 / cplxblur=20.0 / qblur=0.5 / vbv_maxrate=40000 / vbv_bufsize=30000 / nal_hrd=none / frame-packing=3 / ip_ratio=1.40 / aq=2:0.80
Язык : English
Default : Нет
Forced : Нет
Аудио #1
Идентификатор : 2
Формат : AC-3
Формат/Информация : Audio Coding 3
Расширение режима : CM (complete main)
Параметр Endianness формата : Big
Идентификатор кодека : A_AC3
Продолжительность : 1 ч. 28 м.
Вид битрейта : Постоянный
Битрейт : 640 Кбит/сек
Каналы : 6 каналов
Расположение каналов : Front: L C R, Side: L R, LFE
Частота : 48,0 КГц
Битовая глубина : 16 бит
Метод сжатия : С потерями
Размер потока : 405 Мбайт (6%)
Заголовок : дубляж
Язык : Russian
Default : Да
Forced : Да
Аудио #2
Идентификатор : 3
Формат : AC-3
Формат/Информация : Audio Coding 3
Расширение режима : CM (complete main)
Параметр Endianness формата : Big
Идентификатор кодека : A_AC3
Продолжительность : 1 ч. 28 м.
Вид битрейта : Постоянный
Битрейт : 640 Кбит/сек
Каналы : 6 каналов
Расположение каналов : Front: L C R, Side: L R, LFE
Частота : 48,0 КГц
Битовая глубина : 16 бит
Метод сжатия : С потерями
Размер потока : 405 Мбайт (6%)
Заголовок : дубляж
Язык : Ukrainian
Default : Нет
Forced : Нет
Аудио #3
Идентификатор : 4
Формат : AC-3
Формат/Информация : Audio Coding 3
Расширение режима : CM (complete main)
Параметр Endianness формата : Big
Идентификатор кодека : A_AC3
Продолжительность : 1 ч. 28 м.
Вид битрейта : Постоянный
Битрейт : 640 Кбит/сек
Каналы : 6 каналов
Расположение каналов : Front: L C R, Side: L R, LFE
Частота : 48,0 КГц
Битовая глубина : 16 бит
Метод сжатия : С потерями
Размер потока : 405 Мбайт (6%)
Заголовок : оригинал
Язык : English
Default : Нет
Forced : Нет
Текст #1
Идентификатор : 5
Формат : UTF-8
Идентификатор кодека : S_TEXT/UTF8
Идентификатор кодека/Информация : UTF-8 Plain Text
Заголовок : фулл
Язык : English
Default : Нет
Forced : Нет
Текст #2
Идентификатор : 6
Формат : UTF-8
Идентификатор кодека : S_TEXT/UTF8
Идентификатор кодека/Информация : UTF-8 Plain Text
Заголовок : полные
Язык : Russian
Default : Нет
Forced : Нет
Меню
00:00:00.000 : en:00:00:00.000
00:04:26.057 : en:00:04:26.057
00:07:45.340 : en:00:07:45.340
00:16:20.188 : en:00:16:20.188
00:21:11.812 : en:00:21:11.812
00:24:49.988 : en:00:24:49.988
00:30:29.828 : en:00:30:29.828
00:35:31.755 : en:00:35:31.755
00:40:04.944 : en:00:40:04.944
00:45:23.930 : en:00:45:23.930
00:52:30.731 : en:00:52:30.731
00:57:21.563 : en:00:57:21.563
01:02:53.937 : en:01:02:53.937
01:07:43.726 : en:01:07:43.726
01:12:18.501 : en:01:12:18.501
01:16:41.430 : en:01:16:41.430
Благодарности релизеру (2)

Торрент:

Статус:

Размер:

Зарегистрирован   [ 2012-04-26 14:13 ]

проверено

6.26 GB