Торренты   
 
 

 

Мушкетеры в 3Д / The Three Musketeers 3D (Пол У. С. Андерсон / Paul W.S. Anderson) [2011, BDrip, 1080p, Full OverUnder ]

Рейтинг 3D:
37 голосов
7.5
Рейтинг фильма:
33 голосов
7.5
 
Вы должны быть авторизированы,
чтобы ставить оценки


Мушкетеры / The Three Musketeers

Год выпуска: 2011
Страна: США, Германия, Франция, Великобритания
Студия: Constantin Film, Impact Pictures
Жанр: боевик, приключения
Продолжительность: 01:50:31
Перевод: Профессиональный (дублированный)
Русские субтитры: нет
Режиссер на русском: Пол У. С. Андерсон
Режиссер на английском: Paul W.S. Anderson
В ролях: Логан Лерман, Милла Йовович, Мэтью Макфейден, Рэй Стивенсон, Люк Эванс, Мадс Миккельсен, Габриэлла Уайлд, Джеймс Корден, Джуно Темпл, Фредди Фокс
Роли озвучивали: Даниил Щебланов, Ирина Киреева, Владимир Зайцев, Александр Груздев, Алексей Мясников, Илья Бледный, Василий Дахненко, Олег Щербинин, Лина Иванова, Антон Колесников, Лиза Мартиросова, Николай Быстров, Пётр Иващенко
Описание: Молодой д’Артаньян покинул родной дом и отправился в Париж, надеясь на место в полку мушкетёров. По случайности в один день он обидел сразу троих мушкетёров — Атоса, Портоса и Арамиса — и получил от всех троих вызовы на дуэль.
Но дуэль была прервана появлением гвардейцев кардинала, которые хотели арестовать их за нарушение указа о запрете дуэлей. Д’Артаньян и три мушкетера победили превосходящего противника и стали друзьями. Теперь они должны остановить злобного Кардинала Ришелье и столкнутся с герцогом Бэкингемом, и предательницей Миледи Де Винтер.
На встроенных ТВ-плейерах работать не будет!!!
Качество: BDrip
Контейнер: MKV
Формат 3D: OverUnder / Вертикальная стереопара
Порядок ракурсов: левый ракурс первый
Видео кодек: x264
Аудио кодек: DTS
Видео: AVC / 1920х1632 / 23,976 кадр/сек / 20,5 Мбит/сек
Аудио 1: Русский / DTS / 48 KHz / 5.1 ch / 1510 Kbps
Аудио 2: Английский / DTS / 48 KHz / 5.1 ch / 1510 Kbps

MediaInfo

General
Complete name : D:\3D Кинофильмы\Мушкетеры (2011).mkv
Format : Matroska
File size : 18.5 GiB
Duration : 1h 50mn
Overall bit rate : 24.0 Mbps
Encoded date : UTC 2012-04-26 08:15:06
Writing application : mkvmerge v3.4.0 ('Rapunzel') сборка от May 15 2010 09:38:20
Writing library : libebml v0.8.0 + libmatroska v0.9.0
Video
ID : 1
Format : AVC
Format/Info : Advanced Video Codec
Format profile : High@L5.0
Format settings, CABAC : Yes
Format settings, ReFrames : 5 frames
Muxing mode : Container profile=Unknown@5.0
Codec ID : V_MPEG4/ISO/AVC
Duration : 1h 50mn
Bit rate : 20.5 Mbps
Width : 1 920 pixels
Height : 1 632 pixels
Display aspect ratio : 1.176
Frame rate : 23.976 fps
Color space : YUV
Chroma subsampling : 4:2:0
Bit depth : 8 bits
Scan type : Progressive
Bits/(Pixel*Frame) : 0.273
Stream size : 15.8 GiB (85%)
Writing library : x264 core 119 r2106 07efeb4
Encoding settings : cabac=1 / ref=5 / deblock=1:-3:-3 / analyse=0x3:0x113 / me=umh / subme=9 / psy=1 / psy_rd=1.00:0.15 / mixed_ref=1 / me_range=16 / chroma_me=1 / trellis=2 / 8x8dct=1 / cqm=0 / deadzone=21,11 / fast_pskip=1 / chroma_qp_offset=-3 / threads=6 / sliced_threads=0 / nr=0 / decimate=1 / interlaced=0 / bluray_compat=0 / constrained_intra=0 / bframes=4 / b_pyramid=2 / b_adapt=2 / b_bias=0 / direct=3 / weightb=1 / open_gop=0 / weightp=2 / keyint=250 / keyint_min=23 / scenecut=40 / intra_refresh=0 / rc_lookahead=40 / rc=crf / mbtree=1 / crf=18.0 / qcomp=0.60 / qpmin=10 / qpmax=69 / qpstep=4 / vbv_maxrate=40000 / vbv_bufsize=40000 / crf_max=0.0 / nal_hrd=none / ip_ratio=1.40 / aq=1:1.00
Audio #1
ID : 2
Format : DTS
Format/Info : Digital Theater Systems
Codec ID : A_DTS
Duration : 1h 50mn
Bit rate mode : Constant
Bit rate : 1 510 Kbps
Channel(s) : 6 channels
Channel positions : Front: L C R, Side: L R, LFE
Sampling rate : 48.0 KHz
Bit depth : 16 bits
Stream size : 1.16 GiB (6%)
Language : Russian
Audio #2
ID : 3
Format : DTS
Format/Info : Digital Theater Systems
Codec ID : A_DTS
Duration : 1h 50mn
Bit rate mode : Constant
Bit rate : 1 510 Kbps
Channel(s) : 6 channels
Channel positions : Front: L C R, Side: L R, LFE
Sampling rate : 48.0 KHz
Bit depth : 16 bits
Stream size : 1.16 GiB (6%)
Language : English

Скриншоты

Остальные раздачи этого фильма (4)
Благодарности релизеру (5)

Торрент:

Статус:

Размер:

Зарегистрирован   [ 2012-04-26 17:31 ]

проверено

18.52 GB

 
 Мнение о фильме (23)

1, 2  След.






Фильм так себе, на один раз. 3D вполне на уровне, глубина честная. Все вылеты сведены к вылезанию шпаги в различных сценах. В общем старина Андерсон в этот раз схалтурил, ожидал большего)).
 

В свое время, когда все мы были молоды, Пол Андерсон снимал прекрасное кино в своей нише. Мортал Комбат - мы мальчишками писались от удовольствия. Обитель зла - тоже прекрасное, вполне новаторское, кино. Но есть проблема - мы стали взрослее. А фильмы Андерсона, кажется, остались там, в прошлом.
Пол достиг высшего уровня умений в визуализации, такой картинки позавидуют самые топовые блокбастеры. Но вся эта прекрасная работа дизайнеров и визуализаторов ушли на подростковую жвачку, как ни это не прискорбно. Полностью пустой, качественно сделанный, фильм не для взрослых. Не понимаю зачем было приглашать в фильм таких замечательных актеров, как Кристоф Вальц и Мадс Миккельсен - этим мощным актерам негде раскрыться, их роли выглядят жалко и несуразно.
3D в фильме плохое. Несмотря на то, что снят он вроде бы в честном 3D, но использовано оно впустую. Никаких вылетов. И даже в сценах, где объем должен быть очевиден - он плоский. В определенный момент выключил 3D и досмотрел фильм в обычном формате. Но хотя бы досмотрел.
 

admin
Я так же смотрел фильм "Последний охотник", вроде блюрей 3д все по честному, но когда на 2д переключил, то и видео в разы стало ярче и четче, и ощущение от фильма совсем иное испытал. Не все то, что в 3д заявлено, таковым является. К сожалению.
 

Спасибо за фильм. Красивая объемная картинка, хороший звук.
 

Привет из Казахстана.
Огромное спасибо, посмотрел наконецто, впечатлен, как всегда чувствуеться работа мастера, подбор артистов просто изумителен, спец эффекты потрясающи, смотриться на одном дыхании. ну в общем все оккей.
 

наконец то честное и красивое 3д :)
 

Спасибо огромное!Посмотрел с удовольствием!3д отличное!!!Фильм понравился!!!
 

Otlichnoe 3d .....spasibo
 

Александр, спасибо. Посмотрел немного, вроде интересно старая история преподнесена, глубина есть, 3D в порядке, на мой взгляд.
 

Звук, картинка, глубина отличные, но я разочарован, вылетов из экрана нет, не знаю в чем причина, трейлер смотрел, шпаги вылетали, а в фильме как то не так, нет того эфекта вылета из экрана((( в других релизах присутствует вылет в сооттветствии с трейлером, в чем трабла не подскажете? а так в целом спсибо за релиз.
 

asich83
Не знаю что за трейлеры вы смотрели. Мы тут тоже смотрели трейлер до выхода фильма и несколько человек, включая меня, написали, что объема кот наплакал. Фильм такой, плохо с 3д, вот и вся трабла.
 

Отличный фильм и 3D
 

Сходство с мушкетерами из книги А.Дюма здесь есть разве что в именах и не больше. Этот фильм-тупой набор спецэффектов и трюков, порой совершенно бессмысленных, доходящих до абсурда. Словом-банальный голивудский продукт, всего лишь. Думаю, все, кто читал книги А.Дюма испытал тошнотворное чувство при просмотре....
 

Фильм Супер,в стиле современной режиссуре(а что Вы хотите-21 век!),3D у меня тоже-супер,исползую Daum PotPlayer +SVP Manager(благо проц. Intel i7 позволяет)
Как задействовать SVP (только в x86 версии):
1. включить в инсталляторе пункт - "Добавить профиль FFdshow Video Decoder with SVP (Smooth Video)"
2. после установки запустить SVP Manager
3. запустить видео
Большое СПАСИБО Dag13 за мастерскую работу!
Просьба к уважаемым релизерам-а на 60 fps релизов ни как не???????
 

Спасибо,фильм понравился
 

3D на отлично !
 

Да-а, фильм - типично голливудская поделка, но один раз посмотреть можно, т.к. 3D и спецэффекты достаточно неплохие. Конец фильма предусматривает продолжение, так что будем посмотреть.
 

Не понравилось кино.Картинка норм,что не скажешь о содержании, чересчур тривиально. Касательно 3D- ничего особенного.На один раз если есть охота посмотреть что-нибудь в 3D и ничего больше нет.
 

Смотрел в 2D давно понравился,теперь после приобретения ТВ Samsung -8000 заценим в 3D,хоть и коменты противоположные!Релизеру спасибо за труды!
 

3 D на уровне. фильм так-себе.
 

Страница 1 из 2

1, 2  След.