Торренты   
 
 

 

Забытая планета. Припять (Чернобыль) и Пичер (Оклахома) / Forgotten Planet. Pripyat and Picher [2011 г., Anamorph SideBySide]

Рейтинг 3D:
4 голосов
7.0
Рейтинг фильма:
3 голосов
8.3
 
Вы должны быть авторизированы,
чтобы ставить оценки


Забытая планета. Припять (Чернобыль) и Пичер (Оклахома)Forgotten Planet. Pripyat and Picher
Год выпуска: 2011
Страна: Великобритания
Жанр: Документальный
Продолжительность: 00:43:44
Перевод: Отсутствует
Русские субтитры: нет
Описание: Одна из серий сериала о заброшенных, вследствие техногенных катастроф, местах Земли.
Доп. информация: В память о Чернобыльской аварии (26-я годовщина), решил выложить соответствующую серию имеющегося сериала о заброшенных местах планеты. Если найдётся достаточное количество желающих, то добавлю сюда и несколько имеющихся ещё серий о других заброшенных местах нашей планеты.
Захват со Sky 3D. Спасибо автору рипа - Olijack!-- Проверено на встроенном плейере ТВ Samsung UE-C7000--Формат 3d: Anamorph SideBySide
Качество: HDTVrip
Контейнер: MKV
Видео: AVC / 25.000 fps / 1920х1080p / 5408 Kbps
Аудио: Английский / AC3 / 48 KHz / 5.1 ch / 384 Kbps

MediaInfo

General
UniqueID : 209896999280720677838690114052439891868 (0x9DE8B10DB134F087AEF6EE9104A75F9C)
Complete name : F:\Downloads\Forgotten Planet 3D Pripyat and Picher.mkv
Format : Matroska
File size : 1.81 GiB
Duration : 43mn 44s
Overall bit rate : 5 909 Kbps
Encoded date : UTC 2012-04-26 12:18:20
Writing application : mkvmerge v3.4.0 ('Rapunzel') сборка от May 15 2010 09:38:20
Writing library : libebml v0.8.0 + libmatroska v0.9.0
Video
ID : 1
Format : AVC
Format/Info : Advanced Video Codec
Format profile : High@L4.1
Format settings, CABAC : Yes
Format settings, ReFrames : 3 frames
Codec ID : V_MPEG4/ISO/AVC
Duration : 43mn 44s
Bit rate mode : Variable
Bit rate : 5 408 Kbps
Maximum bit rate : 8 000 Kbps
Width : 1 920 pixels
Height : 1 080 pixels
Display aspect ratio : 16:9
Frame rate : 25.000 fps
Standard : PAL
Color space : YUV
Chroma subsampling : 4:2:0
Bit depth : 8 bits
Scan type : Progressive
Bits/(Pixel*Frame) : 0.104
Stream size : 1.65 GiB (92%)
Color primaries : BT.709-5, BT.1361, IEC 61966-2-4, SMPTE RP177
Transfer characteristics : BT.709-5, BT.1361
Matrix coefficients : BT.709-5, BT.1361, IEC 61966-2-4 709, SMPTE RP177
Audio
ID : 2
Format : AC-3
Format/Info : Audio Coding 3
Mode extension : CM (complete main)
Codec ID : A_AC3
Duration : 43mn 44s
Bit rate mode : Constant
Bit rate : 384 Kbps
Channel(s) : 6 channels
Channel positions : Front: L C R, Side: L R, LFE
Sampling rate : 48.0 KHz
Bit depth : 16 bits
Compression mode : Lossy
Stream size : 120 MiB (6%)
Language : English
Благодарности релизеру (9)

Торрент:

Статус:

Размер:

Зарегистрирован   [ 2012-04-26 18:45 ]

проверено

1.81 GB